Вы используете незарегистрированную версию компонента "Вкладки"!

Поиск

1961 Art Blakey feat. Bud Powell & Lee Morgan - Blakey in Paris (Live) {Music Manager} [24-48]

1961 Art Blakey feat. Bud Powell & Lee Morgan - Blakey in Paris (Live) {Music Manager} [24-48]
Стили:
Дата записи диска:
18 декабря 1959
Место записи:
Théâtre des Champs-Élysées, Paris, USA
Носитель:
WEB
Формат:
PCM
Тип рипа:
tracks
Контейнер:
FLAC (*.flac)
Количество каналов:
2.0
Разрядность/ЧД:
24/48
Битрейт аудио:
lossless
Время звучания:
00:42:14
Наличие сканов:
только обложка
Лог проверки качества
foobar2000 1.4.6 / Dynamic Range Meter 1.1.1
log date: 2021-07-01 21:34:09

--------------------------------------------------------------------------------
Analyzed: Art Blakey / Blakey in Paris
--------------------------------------------------------------------------------

DR         Peak         RMS     Duration Track
--------------------------------------------------------------------------------
DR8        0.00 dB    -9.82 dB     12:28 01-Dance of the Infidels (Live)
DR8        0.00 dB   -10.08 dB     11:38 02-Bouncing with Bud (Live)
DR10       0.00 dB   -11.41 dB     11:06 03-The Midget (Live)
DR8        0.00 dB    -9.96 dB      7:05 04-A Night in Tunisia (Live)
--------------------------------------------------------------------------------

Number of tracks:  4
Official DR value: DR9

Samplerate:        48000 Hz
Channels:          2
Bits per sample:   24
Bitrate:           1436 kbps
Codec:             FLAC
================================================================================
Any questions - support@pro-jazz.com. Есть вопросы - support@pro-jazz.com
15:44
37
Нет комментариев. Ваш будет первым!