Вы используете незарегистрированную версию компонента "Вкладки"!

Поиск

2021 Daniel Herskedal - Harbour {Edition} [24-96]

2021 Daniel Herskedal - Harbour {Edition} [24-96]
Стили:
Место записи:
Ocean Sound Recordings, Giske, Norway
Дата издания диска:
2 июля 2021
Издатель (лейбл):
Носитель:
WEB
Формат:
PCM
Тип рипа:
tracks
Контейнер:
FLAC (*.flac)
Количество каналов:
2.0
Разрядность/ЧД:
24/96
Битрейт аудио:
lossless
Время звучания:
00:45:14
Наличие сканов:
только обложка
Лог проверки качества
foobar2000 1.4.2 / Dynamic Range Meter 1.1.1
log date: 2021-07-04 18:43:57

--------------------------------------------------------------------------------
Analyzed: Daniel Herskedal / Harbour
--------------------------------------------------------------------------------

DR         Peak         RMS     Duration Track
--------------------------------------------------------------------------------
DR10      -0.43 dB   -13.42 dB      3:15 01-The Mariner's Cross
DR10      -0.41 dB   -13.42 dB      3:08 02-Ice-free
DR11      -0.48 dB   -15.35 dB      7:20 03-The Lighthouse On The Horizon
DR12      -0.47 dB   -15.98 dB      4:31 04-Hunters Point Drydocks
DR11      -0.47 dB   -15.94 dB      3:49 05-Arriving at Ellis Island
DR10      -0.37 dB   -13.27 dB      5:56 06-Dancing Dhow Deckhands
DR12      -0.44 dB   -16.14 dB      4:11 07-Like A Ship in The Harbour
DR11      -0.41 dB   -15.86 dB      4:04 08-The White Lion Docks in Point Comfort
DR10      -0.62 dB   -14.29 dB      3:54 09-Port of Call
DR12      -0.53 dB   -17.30 dB      5:11 10-The Beaches of Lesbos
--------------------------------------------------------------------------------

Number of tracks:  10
Official DR value: DR11

Samplerate:        96000 Hz
Channels:          2
Bits per sample:   24
Bitrate:           2221 kbps
Codec:             FLAC
================================================================================
Any questions - support@pro-jazz.com. Есть вопросы - support@pro-jazz.com
11:04
54
Нет комментариев. Ваш будет первым!