Вы используете незарегистрированную версию компонента "Вкладки"!

Поиск

2021 Emil De Waal - Vente {April} [24-44.1]

2021 Emil De Waal - Vente {April} [24-44.1]
Стили:
Дата издания диска:
2 июля 2021
Носитель:
WEB
Формат:
PCM
Тип рипа:
tracks
Контейнер:
FLAC (*.flac)
Количество каналов:
2.0
Разрядность/ЧД:
24/44,1
Битрейт аудио:
lossless
Время звучания:
00:39:53
Наличие сканов:
только обложка
Лог проверки качества
foobar2000 1.4.2 / Dynamic Range Meter 1.1.1
log date: 2021-07-04 18:44:58

--------------------------------------------------------------------------------
Analyzed: Emil De Waal / Vente
--------------------------------------------------------------------------------

DR         Peak         RMS     Duration Track
--------------------------------------------------------------------------------
DR9       -0.73 dB   -12.49 dB      4:17 01-Peg Of My Heart
DR8       -0.72 dB   -12.78 dB      4:16 02-First Song (For Ruth)
DR7       -0.73 dB    -8.61 dB      3:53 03-Ventemedister
DR8       -0.74 dB   -11.32 dB      4:15 04-Holgers Vuggevise
DR11      -0.76 dB   -13.42 dB      2:01 05-Uffes Tappenstreg
DR9       -0.74 dB   -11.92 dB      4:40 06-Wuhan Waltz
DR8       -0.70 dB   -11.00 dB      5:44 07-Music To Watch Girls By
DR10      -0.76 dB   -12.07 dB      3:58 08-Biblioteksvals
DR10      -0.75 dB   -13.31 dB      6:51 09-Such Sweet Thunder
--------------------------------------------------------------------------------

Number of tracks:  9
Official DR value: DR9

Samplerate:        44100 Hz
Channels:          2
Bits per sample:   24
Bitrate:           1544 kbps
Codec:             FLAC
================================================================================
Any questions - support@pro-jazz.com. Есть вопросы - support@pro-jazz.com
13:34
29
Нет комментариев. Ваш будет первым!