Поиск

2020 Waldo Fabian - Dreaming in Colour {Hot Chilli} [24-48]

2020 Waldo Fabian - Dreaming in Colour {Hot Chilli} [24-48]
Стили:
Дата издания диска:
24 марта 2020
Носитель:
WEB
Формат:
PCM
Тип рипа:
tracks
Контейнер:
FLAC (*.flac)
Количество каналов:
2.0
Разрядность/ЧД:
24/48
Битрейт аудио:
lossless
Время звучания:
00:50:46
Наличие сканов:
буклет pdf

Треклист:
  • 01. Dreaming in Colour   04:23
  • 02. Boogaloo   03:24
  • 03. Calm down   04:35
  • 04. 2 Deep   04:16
  • 05. Déjà vu   07:06
  • 06. Dime Nena   05:13
  • 07. Endiablado   04:19
  • 08. Get Up   03:42
  • 09. In the Groove   04:04
  • 10. Stop it Now   04:09
  • 11. Stop it Now Remix (Featuring WAIZA)   04:35
  • 12. Lady Bass   01:00
Состав:
  • Waldo Fabian, bass and percussion
  • Andrew Gander, drums
  • Craig Walters, saxophone
  • Carl Dewhurst, guitar
  • Anthony Kable, trombone
  • Kevin Hunt, piano track
  • Brendan St Ledger, piano and synth
  • Ed Goyer, vibraphone, marimba
  • WAIZA, rap, remixed and mastered
  • Rebecca Caruana Bryant, backing vocals (tracks 8, 10 and 11)
  • Fiona Ta'akimoeaka, backing vocals (tracks 8, 10 and 11)
Доп. инфо:

«Сновидения в цвете» спродюсировал Уолдо Фабиан. Сопродюсером и инженером звукозаписи и микширования выступил Фрэнк Керерестджиан. Уолдо сочинил и аранжировал все мелодии. В этом альбоме участвуют некоторые из лучших джазовых музыкантов Австралии, в том числе Эндрю Гандер на ударных, Крейг Уолтерс на саксофоне, Карл Дьюхерст на гитаре, Энтони Кейбл на тромбоне, Кевин Хант на фортепиано, а Уолдо играет на басу во всех треках. Dreaming in Color был полностью записан в формате «Analog 2"» и впоследствии смикширован с использованием современных цифровых технологий. Стилистически Dreaming in Color представляет собой настоящий сплав стилей, от кислотного джаза до латиноамериканских и фанк-джазовых треков.

Уолдо Фабиан - один из самых ярких и оригинальных артистов Австралии. Уолдо подписал контракт с Warner Chappell Music в Австралии. Кроме того, Уолдо подписал контракт с культовым австралийским лейблом Festival Mushroom Records. В настоящее время Уолдо подписал международный издательский контракт с BMG.

Один из основателей группы Catholics, он является басистом, композитором и продюсером, который работал с различными поп, латино и джазовыми группами и музыкантами в Австралии и Южной Америке, включая Флойда Винсента, Свуп, Амазонию. Предыдущие релизы включают: Dejame Tocarte, a South Американский релиз через Sony и Loco выпущен в Австралии через Festival / Mashroom Records.

Уолдо также много работал с лучшими ди-джеями Австралии в качестве авторов песен и микшеров. Некоторые из этих работ включают Love Tatoo, (Sony), Марка Уолтона и Крейга Оби. У Уолдо работали над своими песнями и делали ремиксы Энтони Коппинга, Джеймса Аткина (EMF) и Клиффа Хьюитта (Apollo 440).

Его универсальность также включает в себя написание музыки для фильмов и для телевидения - его песня Love Addiction, показанная в фильме HBO Purple Haze. Он сочинил и продюсировал музыку для Ramdom8.

Уолдо - уважаемый ученый и имеет докторскую степень в области музыки. Уолдо - автор ряда научных публикаций. Один из его недавних проектов включает исследование музыки мигрантов в Берлине. В этот проект войдет альбом удового исполнителя Набиля Арбаина.

Лог проверки качества
foobar2000 1.6.2 / Dynamic Range Meter 1.1.1
log date: 2021-11-25 13:14:10

--------------------------------------------------------------------------------
Analyzed: Waldo Fabian / Dreaming in Colour
--------------------------------------------------------------------------------

DR         Peak         RMS     Duration Track
--------------------------------------------------------------------------------
DR15       0.00 dB   -17.44 dB      4:23 01-Dreaming in Colour
DR15       0.00 dB   -16.40 dB      3:24 02-Boogaloo
DR14       0.00 dB   -16.02 dB      4:35 03-Calm down
DR14       0.00 dB   -15.57 dB      4:16 04-2 Deep
DR14       0.00 dB   -16.12 dB      7:06 05-Déjà vu
DR17       0.00 dB   -18.89 dB      5:13 06-Dime Nena
DR14       0.00 dB   -14.67 dB      4:19 07-Endiablado
DR14      -0.30 dB   -16.26 dB      3:42 08-Get Up
DR15       0.00 dB   -16.96 dB      4:04 09-In the Groove
DR14       0.00 dB   -15.86 dB      4:09 10-Stop it Now
DR7        0.00 dB    -9.13 dB      4:35 11-Stop it Now Remix (Featuring WAIZA)
DR10       0.00 dB   -11.60 dB      1:00 12-Lady Bass
--------------------------------------------------------------------------------

Number of tracks:  12
Official DR value: DR14

Samplerate:        48000 Hz
Channels:          2
Bits per sample:   24
Bitrate:           1442 kbps
Codec:             FLAC
================================================================================
По всем вопросам пишите личное сообщение пользователю M0p94ok.
13:24
298
Нет комментариев. Ваш будет первым!