Поиск

2021 Wildflower - Better Times {CNM LDN} [24-44.1]

2021 Wildflower - Better Times {CNM LDN} [24-44.1]
Место записи:
The Fish Factory, London, UK; Hoxa HQ, London, UK
Дата издания диска:
15 июня 2021
Носитель:
WEB
Формат:
PCM
Тип рипа:
tracks
Контейнер:
FLAC (*.flac)
Количество каналов:
2.0
Разрядность/ЧД:
24/44,1
Битрейт аудио:
lossless
Время звучания:
00:22:00
Наличие сканов:
только обложка

Треклист:

01 - Blue (00:04:14)
02 - Yellow (00:03:48)
03 - Green (00:05:51)
04 - Red (00:08:07)

Состав:
  • Bass – Leon Brichard
  • Drums – Tom Skinner
  • Engineer [Mixing] – Emre Ramazanoglu
  • Producer – Wildflower (13)
  • Saxophone – Idris Rahman
Лог проверки качества
foobar2000 1.4.2 / Dynamic Range Meter 1.1.1
log date: 2021-07-04 18:51:48
--------------------------------------------------------------------------------
Analyzed: Wildflower / Better Times
--------------------------------------------------------------------------------
DR         Peak         RMS     Duration Track
--------------------------------------------------------------------------------
DR8        0.00 dB   -10.33 dB      4:14 01-Blue
DR8        0.00 dB   -10.19 dB      3:48 02-Yellow
DR6        0.00 dB   -10.15 dB      5:51 03-Green
DR10       0.00 dB   -11.39 dB      8:07 04-Red
--------------------------------------------------------------------------------
Number of tracks:  4
Official DR value: DR8
Samplerate:        44100 Hz
Channels:          2
Bits per sample:   24
Bitrate:           1458 kbps
Codec:             FLAC
================================================================================
По всем вопросам пишите личное сообщение пользователю M0p94ok.
22:25
275
Нет комментариев. Ваш будет первым!