Поиск

2021 The Underflow - Instant Opaque Evening {Blue Chopsticks} [24-48]

2021 The Underflow - Instant Opaque Evening {Blue Chopsticks} [24-48]
Дата издания диска:
29 января 2021
Битрейт аудио:
lossless
Доп. инфо:

Формат записи/Источник записи: [TR24][OF]
Год издания: 2021
Издатель (лейбл): Blue Chopsticks
Продолжительность: 01:26:09
Контейнер: FLAC (*.flac)
Тип рипа: tracks
Разрядность: 24/48
Количество каналов: 2.0
Источник: WEB
Наличие сканов в содержимом раздачи: Только обложка альбома

Лог проверки качества
foobar2000 1.3.9 / Dynamic Range Meter 1.1.1
log date: 2021-02-16 00:18:20

--------------------------------------------------------------------------------
Analyzed: The Underflow / Instant Opaque Evening
--------------------------------------------------------------------------------

DR         Peak         RMS     Duration Track
--------------------------------------------------------------------------------
DR9       -0.25 dB   -14.49 dB     16:58 1-Instant Opaque Evening
DR18      -0.20 dB   -23.79 dB      5:18 2-Planks
DR11      -0.20 dB   -13.84 dB      5:16 3-An Optimist Declines
DR10      -0.25 dB   -14.13 dB     13:42 4-Self Portrait as Interference Pattern
DR13      -1.49 dB   -19.74 dB      3:48 5-A Thiny Eternity
DR13      -0.20 dB   -18.68 dB      6:06 6-Not at My Funeral
DR10      -0.20 dB   -14.56 dB      8:58 7-Sound of a Wet Leather Ball
DR12      -1.24 dB   -16.07 dB      5:11 8-Gethsemani Night
DR8       -0.97 dB   -13.65 dB     12:28 9-Purple Lacquer Portal
DR11      -0.24 dB   -16.02 dB      8:24 10-Cooler Side of the Pillow
--------------------------------------------------------------------------------

Number of tracks:  10
Official DR value: DR12

Samplerate:        48000 Hz
Channels:          2
Bits per sample:   24
Bitrate:           1389 kbps
Codec:             FLAC
================================================================================
No seeders - write personal message to M0p94ok. Any questions - support@pro-jazz.com.
Нет сидеров - пишите в личку M0p94ok. Есть вопросы - support@pro-jazz.com
22:36
80
Нет комментариев. Ваш будет первым!