Поиск

2011 VA - Master Superior Audiophile {Master Music} [DST64 ISO]

2011 VA - Master Superior Audiophile {Master Music} [DST64 ISO]
Стили:
Номер по каталогу:
MASA 51182
Битрейт аудио:
lossless
Треклист:

01. Rhythm Song - Eliel Lazo
02. Sway / Whatever Lola Wants - Nicki Parrott & Ken Peplowski
03. Always On My Mind - Chie Ayado
04. Eleanor Rigby - Kazumi Watanabe & Minako Yoshida
05. Arirang - Ulf Wakenius
06. Both Sides Now - Unni Wihelmsen
07. Stranger In Paradise - Simone Kopmajer
08. The Best Part of Me - Cindy Kvinlaug
09. Gragasa - Kari Bremnes
10. Funny How Time Slips Away - Hanne Boel / Mario Biondi
11. One Drop Is Plenty - McClain / Reiersrud
12. Mot Alvak Morgon Vestan - Fjella gloder
13. Only You - Chie Ayado
14. Standing Up - Fiona Joy Hawkins

Доп. инфо:

Формат записи/Источник записи: [SACD-R][OF]
Наличие водяных знаков: Нет
Издание: Sampler
Год издания диска: 2011
Издатель (лейбл): Master Music
Продолжительность: 01:07:40
Наличие сканов в содержимом раздачи: Только обложка альбома

Контейнер: ISO (*.iso)
Тип рипа: image
Разрядность: 64 (2,8 MHz/1 Bit)
Формат: DST64
Количество каналов: 2.0

Источник (релизер): HRAudio.net

Лог проверки качества
foobar2000 1.6.4 / Замер динамического диапазона (DR) 1.1.1
Дата отчёта:  2021-02-20 20:56:04

--------------------------------------------------------------------------------
Анализ:   Various Artist / Master 2011
--------------------------------------------------------------------------------

DR         Пики         RMS           Продолжительность трека
--------------------------------------------------------------------------------
DR11      -6.44 дБ   -19.00 дБ      3:30 01-Rythm Song - Eliel Lazo ft Hanne Boel
DR6      -10.90 дБ   -17.53 дБ      4:10 02-Sway ft Whatever Lola Wants - N Parrott ft K Peplowski
DR12      -6.30 дБ   -21.50 дБ      3:09 03-Always On My Mind - Chie Ayado
DR11      -6.40 дБ   -19.71 дБ      6:32 04-Eleanor Rogby - Minako Yoshida ft K Watanabe
DR11      -6.20 дБ   -19.47 дБ      5:51 05-Ariring - Ulf Wakenius
DR10      -6.40 дБ   -19.57 дБ      5:38 06-Both Sides Now - Unni Wilhelmsen
DR7      -13.79 дБ   -22.69 дБ      5:19 07-Stranger In Paradise - Simone Kopmajer
DR10      -9.03 дБ   -21.20 дБ      3:12 08-The Best Part Of Me - Condy Kvinlaug
DR10      -6.50 дБ   -19.68 дБ      3:42 09-Gragasa - Kari Bremnes
DR10      -6.69 дБ   -19.35 дБ      3:54 10-Funny How Time Slips Away - Hanne Boel ft Mario Biondi
DR10      -6.04 дБ   -19.13 дБ      4:59 11-One Drop Is Plenty - McClain ft Reiersrud
DR11      -6.31 дБ   -21.33 дБ      6:40 12-Mot Alvak Morgon Vestan-fjella Gloder - Asne Valland Nordil
DR10      -6.77 дБ   -20.16 дБ      4:31 13-Only You - Chie Ayado
DR10      -7.21 дБ   -22.13 дБ      6:33 14-Standing Up - Fiona Joy Hawkins
--------------------------------------------------------------------------------

Количество треков: 14
Реальные значения DR: DR10

Частота:  2822400 Гц / Частота PCM: 88200 Гц
Каналов:  2
Разрядность:   1
Битрейт:  5645 кбит/с
Кодек:   DST64
================================================================================
Приватный:
Нет (DHT включён)
Размер:
1.19 Гб (1,279,404,342 байт) » файлов: 4
Участники:
2 раздают, 0 качают (2 участников всего)
Внешние участники:
17 раздают, 5 качают (22 участников всего) [ Обновить ]
No seeders - write personal message to M0p94ok. Any questions - support@pro-jazz.com.
Нет сидеров - пишите в личку M0p94ok. Есть вопросы - support@pro-jazz.com
11:15
62
Нет комментариев. Ваш будет первым!