Поиск

2020 Blaer - Yellow {Ronin Rhythm} [24-48]

2020 Blaer - Yellow {Ronin Rhythm} [24-48]
Стили:
Дата издания диска:
6 февраля 2020
Номер по каталогу:
RON 023
Битрейт аудио:
lossless
Доп. инфо:

Формат записи/Источник записи: [TR24][OF]
Наличие водяных знаков: Нет
Год издания/переиздания диска: 2020
Издатель (лейбл): Ronin Rhythm Records
Продолжительность: 00:56:19
Наличие сканов в содержимом раздачи: Только обложка альбома

Контейнер: FLAC (*.flac)
Тип рипа: tracks
Разрядность: 24/48
Формат: PCM
Количество каналов: 2.0

Источник (релизер): bandcamp

Лог проверки качества
foobar2000 1.6.2 / Dynamic Range Meter 1.1.1
log date: 2021-02-20 23:26:20

--------------------------------------------------------------------------------
Analyzed: Blaer / Yellow
--------------------------------------------------------------------------------

DR         Peak         RMS     Duration Track
--------------------------------------------------------------------------------
DR10      -2.00 dB   -14.24 dB      5:51 01-Yellow
DR8       -1.92 dB   -13.25 dB      7:19 02-The Unknown
DR8       -0.09 dB   -10.30 dB     11:16 03-Years
DR7        0.00 dB   -11.64 dB     10:06 04-Kosmo
DR11      -2.36 dB   -16.58 dB      4:58 05-Epilog
DR7        0.00 dB    -9.76 dB      5:16 06-All We Need
DR10      -0.08 dB   -15.50 dB     11:33 07-Arktis
--------------------------------------------------------------------------------

Number of tracks:  7
Official DR value: DR9

Samplerate:        48000 Hz
Channels:          2
Bits per sample:   24
Bitrate:           1471 kbps
Codec:             FLAC
================================================================================
No seeders - write personal message to M0p94ok. Any questions - support@pro-jazz.com.
Нет сидеров - пишите в личку M0p94ok. Есть вопросы - support@pro-jazz.com
00:31
86
Нет комментариев. Ваш будет первым!