Поиск

1992 Tete Montoliu Trio - Catalonian Rhapsody (2017) {Venus} [DSD64 ISO]

1992 Tete Montoliu Trio - Catalonian Rhapsody (2017) {Venus} [DSD64 ISO]
Дата записи диска:
8 марта 1992
Место записи:
Estudios Moraleda, Barcelona, Spain
Издатель (лейбл):
Номер по каталогу:
VHGD-265
Битрейт аудио:
lossless
Лог проверки качества
foobar2000 1.6.4 / Замер динамического диапазона (DR) 1.1.1
Дата отчёта:  2021-02-21 13:34:57

--------------------------------------------------------------------------------
Анализ:   TETE MONTOLIU TRIO / Catalonian Rhapsody
--------------------------------------------------------------------------------

DR         Пики         RMS           Продолжительность трека
--------------------------------------------------------------------------------
DR7       -2.42 дБ   -11.94 дБ      7:02 01-The Lady From Aragon
DR8       -2.22 дБ   -11.99 дБ      7:45 02-Catalonian National Anthem
DR8       -2.38 дБ   -12.45 дБ      6:36 03-Three Young Ladies
DR7       -2.58 дБ   -11.73 дБ      6:56 04-The Singing Of The Birds
DR8       -2.53 дБ   -12.73 дБ      6:28 05-Song Of The Robber
DR9       -2.03 дБ   -14.66 дБ      4:52 06-Words Of Love
DR7       -2.47 дБ   -11.69 дБ      4:50 07-Don't Smoke Anymore
DR8       -2.37 дБ   -13.63 дБ      8:11 08-My Street
--------------------------------------------------------------------------------

Количество треков: 8
Реальные значения DR: DR8

Частота:  2822400 Гц / Частота PCM: 352800 Гц
Каналов:  2
Разрядность:   1
Битрейт:  5645 кбит/с
Кодек:   DSD64
================================================================================
No seeders - write personal message to M0p94ok. Any questions - support@pro-jazz.com.
Нет сидеров - пишите в личку M0p94ok. Есть вопросы - support@pro-jazz.com
11:04
92
Нет комментариев. Ваш будет первым!