Поиск

2019 VA - Untitled (18 Artists) {The Vinyl Factory} [24-48]

2019 VA - Untitled (18 Artists) {The Vinyl Factory} [24-48]
Стили:
Дата издания диска:
31 мая 2019
Носитель:
WEB
Формат:
PCM
Тип рипа:
tracks
Контейнер:
FLAC (*.flac)
Количество каналов:
2.0
Разрядность/ЧД:
24/48
Битрейт аудио:
lossless
Время звучания:
00:30:52
Наличие сканов:
только обложка
Страна-производитель диска (релиза):
USA
Релизёр (источник):
M0p94ok
Лог проверки качества
foobar2000 1.3.16 / Dynamic Range Meter 1.1.1
log date: 2019-05-31 01:34:12

--------------------------------------------------------------------------------
Analyzed: =CoN+KwAkE= / Untitled (18 Artists) (1)
          Kojey Radical / Untitled (18 Artists) (2)
          LayFullStop / Untitled (18 Artists) (3)
          Lord Tusk / Untitled (18 Artists) (4)
          Mala / Untitled (18 Artists) (5)
          Maxwell Owin / Untitled (18 Artists) (6)
          Wu-Lu / Untitled (18 Artists) (7)
--------------------------------------------------------------------------------

DR         Peak         RMS     Duration Track
--------------------------------------------------------------------------------
DR5       -0.30 dB    -8.29 dB      5:24 06-Same Ol Samo
DR7       -0.30 dB    -9.71 dB      3:34 04-No Gangster
DR7       -0.30 dB   -10.26 dB      4:47 02-Broadcast by Chocolate
DR6       -0.30 dB    -7.36 dB      6:51 03-Know Ways
DR10      -0.30 dB   -13.33 dB      3:43 05-Scratch & Erase
DR6       -0.30 dB    -8.57 dB      2:56 07-Response to Michel
DR8       -0.30 dB   -11.96 dB      3:41 01-Legend
--------------------------------------------------------------------------------

Number of tracks:  7
Official DR value: DR7

Samplerate:        48000 Hz
Channels:          2
Bits per sample:   24
Bitrate:           1715 kbps
Codec:             FLAC
================================================================================
No seeders - write personal message to M0p94ok. Any questions - support@pro-jazz.com.
Нет сидеров - пишите в личку M0p94ok. Есть вопросы - support@pro-jazz.com
17:06
93
Нет комментариев. Ваш будет первым!