Поиск

1984 Roseanna Vitro - Listen Here {Skyline} [24-44,1]

1984 Roseanna Vitro - Listen Here {Skyline} [24-44,1]
Стили:
Битрейт аудио:
lossless
Доп. инфо:

Формат записи/Источник записи: [TR24][OF]
Издание: Remastered
Год издания/переиздания диска: 1984/2021
Издатель (лейбл): Skyline Records
Продолжительность: 00:48:55
Наличие сканов в содержимом раздачи: Буклет PDF

Контейнер: FLAC (*.flac)
Тип рипа: tracks
Разрядность: 24/44,1
Количество каналов: 2.0

Источник (релизер): HIGHRESAUDIO

Лог проверки качества
foobar2000 1.4.3 / Dynamic Range Meter 1.1.1
log date: 2021-02-17 16:31:42

--------------------------------------------------------------------------------
Analyzed: Roseanna Vitro / Listen Here
--------------------------------------------------------------------------------

DR         Peak         RMS     Duration Track
--------------------------------------------------------------------------------
DR10      -1.41 dB   -13.50 dB      3:02 01-No More Blues
DR10      -2.40 dB   -14.93 dB      4:13 02-You Go To My Head
DR10      -2.37 dB   -15.02 dB      4:59 03-Centerpiece
DR10      -1.41 dB   -13.96 dB      4:55 04-Love You Madly
DR10      -3.25 dB   -16.22 dB      5:43 05-A Time For Love
DR10      -2.03 dB   -14.10 dB      3:39 06-This Happy Madness
DR9       -2.83 dB   -16.46 dB      3:07 07-Listen Here
DR10      -1.41 dB   -13.65 dB      3:20 08-It Could Happen To You
DR9       -2.40 dB   -14.95 dB      3:49 09-Easy Street
DR9       -1.41 dB   -13.90 dB      3:50 10-Sometime Ago
DR10      -1.96 dB   -14.65 dB      3:13 11-You Took Advantage Of Me
DR10      -1.41 dB   -14.64 dB      5:10 12-Black Coffee
--------------------------------------------------------------------------------

Number of tracks:  12
Official DR value: DR10

Samplerate:        44100 Hz
Channels:          2
Bits per sample:   24
Bitrate:           1512 kbps
Codec:             FLAC
================================================================================
No seeders - write personal message to M0p94ok. Any questions - support@pro-jazz.com.
Нет сидеров - пишите в личку M0p94ok. Есть вопросы - support@pro-jazz.com
15:34
87
Нет комментариев. Ваш будет первым!