Поиск

2019 Cheick Tidiane Seck - Timbuktu - The Music of Randy Weston {Komos Jazz} [24-44.1]

2019 Cheick Tidiane Seck - Timbuktu - The Music of Randy Weston {Komos Jazz} [24-44.1]
Дата издания диска:
6 октября 2019
Номер по каталогу:
KOS005
Битрейт аудио:
lossless
Доп. инфо:

Формат записи/Источник записи: [TR24][OF]
Наличие водяных знаков: Нет
Год издания/переиздания диска: 2019
Издатель (лейбл): Komos Jazz
Продолжительность: 01:09:43
Наличие сканов в содержимом раздачи: Только обложка альбома

Контейнер: FLAC (*.flac)
Тип рипа: tracks
Разрядность: 24/44,1
Формат: PCM
Количество каналов: 2.0

Источник (релизер): bandcamp

Лог проверки качества
foobar2000 1.6.2 / Dynamic Range Meter 1.1.1
log date: 2021-02-19 22:35:39

--------------------------------------------------------------------------------
Analyzed: Cheick Tidiane Seck / Timbuktu - The Music of Randy Weston
--------------------------------------------------------------------------------

DR         Peak         RMS     Duration Track
--------------------------------------------------------------------------------
DR11      -0.10 dB   -13.03 dB     10:59 01-Tanjah
DR11      -0.10 dB   -13.96 dB      6:41 02-Ganawah (Blue Moses) Rhodes Version
DR11      -0.10 dB   -13.82 dB      9:09 03-Timbuktu feat. Manu Dibango & Abd Al Malik
DR11      -0.10 dB   -13.16 dB      8:01 04-In Memory Of
DR11      -0.10 dB   -12.19 dB     11:40 05-African Cookbook feat. Manu Dibango
DR10      -1.07 dB   -12.74 dB      8:18 06-Ganawa (Blue Moses) Piano Version
DR12      -0.10 dB   -14.36 dB      7:57 07-Niger Mambo
DR11      -1.07 dB   -14.36 dB      6:57 08-Mr Randy
--------------------------------------------------------------------------------

Number of tracks:  8
Official DR value: DR11

Samplerate:        44100 Hz
Channels:          2
Bits per sample:   24
Bitrate:           1553 kbps
Codec:             FLAC
================================================================================
No seeders - write personal message to M0p94ok. Any questions - support@pro-jazz.com.
Нет сидеров - пишите в личку M0p94ok. Есть вопросы - support@pro-jazz.com
23:50
99
Нет комментариев. Ваш будет первым!