Поиск

2021 Stephanie Lottermoser - Hamburg {Leopard} [24-44.1]

2021 Stephanie Lottermoser - Hamburg {Leopard} [24-44.1]
Номер по каталогу:
D77092
Битрейт аудио:
lossless

Треклист:

01. Cory (4:18)
02. What Kind of Lovesong (5:03)
03. Karma (4:43)
04. Hype (4:17)
05. Zwischenraum (4:26)
06. Morgen (Hamburg) (3:23)
07. Letter to the Inner Child (3:16)
08. Within (4:52)
09. Gate A5 Geneve (4:31)
10. Prayer (4:31)
11. Dreaming My Dreams with You (3:56)

Доп. инфо:

Формат записи/Источник записи: [TR24][OF]
Наличие водяных знаков: Нет
Год издания: 2021
Издатель (лейбл): Leopard
Продолжительность: 00:47:12
Наличие сканов в содержимом раздачи: Только обложка альбома
Контейнер: FLAC (*.flac)
Тип рипа: tracks
Разрядность: 24/44.1
Формат: PCM
Количество каналов: 2.0
Источник (релизер): qobuz.com

Лог проверки качества
foobar2000 1.4.8 / Dynamic Range Meter 1.1.1
log date: 2021-02-19 18:28:49

--------------------------------------------------------------------------------
Analyzed: Stephanie Lottermoser / Hamburg
--------------------------------------------------------------------------------

DR         Peak         RMS     Duration Track
--------------------------------------------------------------------------------
DR9       -1.03 dB   -12.33 dB      4:18 01-Cory
DR11      -1.03 dB   -12.85 dB      5:03 02-What Kind of Lovesong
DR13      -1.03 dB   -17.36 dB      4:43 03-Karma
DR7       -1.03 dB   -11.92 dB      4:17 04-Hype
DR9       -1.03 dB   -13.24 dB      4:26 05-Zwischenraum
DR12      -1.03 dB   -15.18 dB      3:23 06-Morgen (Hamburg)
DR8       -0.99 dB   -11.32 dB      3:16 07-Letter to the Inner Child
DR13      -0.99 dB   -16.69 dB      4:52 08-Within
DR12      -1.03 dB   -14.92 dB      4:31 09-Gate A5 Geneve
DR12      -1.03 dB   -16.06 dB      4:31 10-Prayer
DR10      -1.03 dB   -14.43 dB      3:56 11-Dreaming My Dreams with You
--------------------------------------------------------------------------------

Number of tracks:  11
Official DR value: DR11
Samplerate:        44100 Hz
Channels:          2
Bits per sample:   24
Bitrate:           1479 kbps
Codec:             FLAC
================================================================================
Приватный:
Нет (DHT включён)
Размер:
518.45 Мб (543,633,541 байт) » файлов: 13
Участники:
0 раздают, 0 качают (0 участников всего)
Внешние участники:
9 раздают, 3 качают (12 участников всего) [ Обновить ]
No seeders - write personal message to M0p94ok. Нет сидеров - пишите в личку M0p94ok.
19:31
61
Нет комментариев. Ваш будет первым!