Поиск

2021 Larry Coryell & Philip Catherine - Jazz at Berlin Philharmonic XI: The Last Call {ACT Music} [24-48]

2021 Larry Coryell & Philip Catherine - Jazz at Berlin Philharmonic XI: The Last Call {ACT Music} [24-48]
Стили:
Дата записи диска:
24 января 2017
Место записи:
Berliner Philharmonie, Kammermusikaal, Germany
Дата издания диска:
19 февраля 2021
Издатель (лейбл):
Номер по каталогу:
ACT 9929-2
Битрейт аудио:
lossless
Доп. инфо:

Формат записи/Источник записи: [TR24][OF]
Год издания/переиздания диска: 2021
Продолжительность: 00:47:55
Наличие сканов в содержимом раздачи: Буклет PDF

Контейнер: FLAC (*.flac)
Тип рипа: tracks
Разрядность: 24/48
Количество каналов: 2.0

Источник (релизер): HIGHRESAUDIO

Лог проверки качества
foobar2000 1.4.3 / Dynamic Range Meter 1.1.1
log date: 2021-02-17 06:51:48

--------------------------------------------------------------------------------
Analyzed: Larry Coryell & Philip Catherine / Jazz at Berlin Philharmonic XI: The Last Call (Live)
--------------------------------------------------------------------------------

DR         Peak         RMS     Duration Track
--------------------------------------------------------------------------------
DR10      -0.72 dB   -13.25 dB      7:14 01-Miss Julie (Live)
DR11      -0.72 dB   -13.59 dB      6:58 02-Homecomings (Live)
DR10      -0.72 dB   -14.45 dB      7:07 03-Manha De Carnaval (Live)
DR10      -0.72 dB   -12.15 dB      5:29 04-Jemin-Eye'n (Live)
DR11      -0.72 dB   -14.69 dB      4:54 05-Embraceable You (Live)
DR9       -0.72 dB   -12.07 dB      6:43 06-Bags' Groove (Live)
DR8       -0.72 dB   -11.49 dB      9:31 07-Green Dolphin Street (Live)
--------------------------------------------------------------------------------

Number of tracks:  7
Official DR value: DR10

Samplerate:        48000 Hz
Channels:          2
Bits per sample:   24
Bitrate:           1502 kbps
Codec:             FLAC
================================================================================
No seeders - write personal message to M0p94ok. Any questions - support@pro-jazz.com.
Нет сидеров - пишите в личку M0p94ok. Есть вопросы - support@pro-jazz.com
13:30
90
Нет комментариев. Ваш будет первым!