Вы используете незарегистрированную версию компонента "Вкладки"!

Поиск

2017 Lex French Quartet - Prevent The Future {Wizard Tone} [24-48]

2017 Lex French Quartet - Prevent The Future {Wizard Tone} [24-48]
Битрейт аудио:
lossless
Доп. инфо:

Формат записи/Источник записи: [TR24][OF]
Наличие водяных знаков: Нет
Издание: EP
Год издания/переиздания диска: 2017
Издатель (лейбл): Wizard Tone Records
Продолжительность: 00:31:23
Наличие сканов в содержимом раздачи: Нет

Контейнер: FLAC (*.flac)
Тип рипа: tracks
Разрядность: 24/48; 24/44,1
Формат: LPCM
Количество каналов: 2.0

Источник (релизер): bandcamp.com (herms)

Лог проверки качества
foobar2000 1.4.6 / Замер динамического диапазона (DR) 1.1.1
Дата отчёта:  2021-02-17 07:24:09

--------------------------------------------------------------------------------
Статистика для:  01-Sharp Knives and Roller Skates
Количество сэмплов: 16774054
Продолжительность: 6:20
--------------------------------------------------------------------------------

           Левый             Правый

Пики:               -0.31 дБ     ---     -0.31 дБ
Средний RMS:             -14.85 дБ     ---    -14.12 дБ
DR канала:              12.83 дБ     ---     12.31 дБ
--------------------------------------------------------------------------------

Реальные значения DR: DR13

Частота:   44100 Гц
Каналов:   2
Разрядность:   24
Битрейт:   1542 кбит/с
Кодек:   FLAC
================================================================================

foobar2000 1.4.6 / Замер динамического диапазона (DR) 1.1.1
Дата отчёта:  2021-02-17 07:24:13

--------------------------------------------------------------------------------
Анализ:   Lex French Quartet with James Muller / Prevent the Future
--------------------------------------------------------------------------------

DR         Пики         RMS           Продолжительность трека
--------------------------------------------------------------------------------
DR12      -0.31 дБ   -15.64 дБ      7:55 02-Kasid – for Abdulkareem Kasid
DR12      -0.31 дБ   -16.10 дБ      4:27 03-Austerity
DR12      -0.31 дБ   -14.54 дБ      5:41 04-Rude Sketch
DR13      -0.31 дБ   -17.08 дБ      7:00 05-Remembrance – for DLF
--------------------------------------------------------------------------------

Количество треков: 4
Реальные значения DR: DR12

Частота:   48000 Гц
Каналов:   2
Разрядность:   24
Битрейт:   1547 кбит/с
Кодек:   FLAC
================================================================================
Any questions - support@pro-jazz.com. Есть вопросы - support@pro-jazz.com
00:28
106
Нет комментариев. Ваш будет первым!