Поиск

2021 Dominique Fils-Aime - Three Little Words {Modulor} [24-88.2]

2021 Dominique Fils-Aime - Three Little Words {Modulor} [24-88.2]
Стили:
Дата издания диска:
12 февраля 2021
Битрейт аудио:
lossless

Треклист:

01. Grow Mama Grow (03:16)
02. While We Wait (03:10)
03. You Left Me (02:31)
04. Could It Be (02:51)
05. Being the Same (03:00)
06. Mind Made Up (03:34)
07. Fall and All (02:36)
08. Love Take Over (03:05)
09. Tall Lion Down (01:11)
10. Three Little Words (02:51)
11. Home to Me (03:28)
12. We Are Light (02:39)
13. The Healing Song (02:14)
14. Stand By Me (02:13)

Доп. инфо:

Формат записи/Источник записи: [TR24][OF]
Наличие водяных знаков: Нет
Год издания/переиздания диска: 2021
Издатель (лейбл): Modulor
Продолжительность: 00:38:45
Наличие сканов в содержимом раздачи: Только обложка альбома
Источник (релизер): qobuz

Контейнер: FLAC (*.flac)
Тип рипа: tracks
Разрядность: 24/88,2
Формат: PCM
Количество каналов: 2.0

Лог проверки качества
foobar2000 1.1.15 / Dynamic Range Meter 1.1.1
log date: 2021-02-16 13:33:28

--------------------------------------------------------------------------------
Analyzed: Dominique Fils-Aimé / Three Little Words
--------------------------------------------------------------------------------

DR         Peak         RMS     Duration Track
--------------------------------------------------------------------------------
DR7       -0.50 dB    -9.79 dB      3:16 01-Grow Mama Grow
DR7       -0.50 dB    -9.11 dB      3:11 02-While We Wait
DR7       -0.50 dB    -8.80 dB      2:31 03-You Left Me
DR7       -0.50 dB    -9.96 dB      2:52 04-Could It Be
DR8       -0.50 dB   -10.39 dB      3:00 05-Being the Same
DR7       -0.50 dB   -10.01 dB      3:35 06-Mind Made Up
DR10      -0.51 dB   -14.38 dB      2:36 07-Fall and All
DR7       -0.50 dB    -9.83 dB      3:05 08-Love Take Over
DR7       -0.50 dB    -9.71 dB      1:11 09-Tall Lion Down
DR7       -0.50 dB    -9.14 dB      2:51 10-Three Little Words
DR8       -0.50 dB   -11.02 dB      3:28 11-Home to Me
DR8       -0.50 dB   -10.56 dB      2:40 12-We Are Light
DR9       -0.50 dB   -11.50 dB      2:15 13-The Healing Song
DR10      -0.50 dB   -12.23 dB      2:14 14-Stand by Me
--------------------------------------------------------------------------------

Number of tracks:  14
Official DR value: DR8

Samplerate:        88200 Hz
Channels:          2
Bits per sample:   24
Bitrate:           2215 kbps
Codec:             FLAC
================================================================================
Приватный:
Нет (DHT включён)
Размер:
710.75 Мб (745,271,802 байт) » файлов: 17
Участники:
0 раздают, 1 качают (1 участников всего)
Внешние участники:
14 раздают, 5 качают (19 участников всего) [ Обновить ]
Скорость:
527.40 Кб/c 0/c
No seeders - write personal message to M0p94ok. Any questions - support@pro-jazz.com.
Нет сидеров - пишите в личку M0p94ok. Есть вопросы - support@pro-jazz.com
18:40
60
Нет комментариев. Ваш будет первым!