Поиск

2021 The Norwegian Soulband - Groove Your Hips {The Norwegian Soulband} [24-48]

2021 The Norwegian Soulband - Groove Your Hips {The Norwegian Soulband} [24-48]
Стили:
Дата издания диска:
6 августа 2021
Носитель:
WEB
Формат:
PCM
Тип рипа:
tracks
Контейнер:
FLAC (*.flac)
Количество каналов:
2.0
Разрядность/ЧД:
24/48
Битрейт аудио:
lossless
Время звучания:
00:32:42
Наличие сканов:
только обложка

01 - Groove Your Hips (03:43)
02 - Second Opinion (04:28)
03 - Chameleon (04:44)
04 - Get Your Funk On (03:14)
05 - Something in the Air (03:51)
06 - No Sleeping (03:05)
07 - Me and Mrs Jones (06:08)
08 - Tender Touch (03:25)

Лог проверки качества
foobar2000 1.4.2 / Dynamic Range Meter 1.1.1
log date: 2021-08-06 21:55:35
--------------------------------------------------------------------------------
Analyzed: The Norwegian Soulband / Groove Your Hips
--------------------------------------------------------------------------------
DR         Peak         RMS     Duration Track
--------------------------------------------------------------------------------
DR9       -0.35 dB   -11.09 dB      3:43 01-Groove Your Hips
DR9       -0.30 dB   -10.89 dB      4:29 02-Second Opinion
DR8       -0.32 dB   -10.36 dB      4:45 03-Chameleon
DR10      -0.34 dB   -11.29 dB      3:14 04-Get Your Funk On
DR9       -0.34 dB   -11.41 dB      3:51 05-Something in the Air
DR10      -0.35 dB   -11.82 dB      3:06 06-No Sleeping
DR8       -0.35 dB   -10.45 dB      6:09 07-Me and Mrs Jones
DR10      -0.35 dB   -11.37 dB      3:26 08-Tender Touch
--------------------------------------------------------------------------------
Number of tracks:  8
Official DR value: DR9
Samplerate:        48000 Hz
Channels:          2
Bits per sample:   24
Bitrate:           1818 kbps
Codec:             FLAC
================================================================================
Скачивание доступно после регистрации!!
Приватный:
Нет (DHT включён)
Размер:
412.99 Мб (433,046,209 байт) » файлов: 9
Участники:
5 раздают, 0 качают (5 участников всего)
Внешние участники:
--- [ Обновить ]
Скорость:
0/c 149.64 Кб/c
20:20
411
Нет комментариев. Ваш будет первым!