Поиск

2021 Silvia Manco - Recado Bossanova {GBMUSIC} [24-96]

2021 Silvia Manco - Recado Bossanova {GBMUSIC} [24-96]
Дата издания диска:
10 августа 2021
Носитель:
WEB
Формат:
PCM
Тип рипа:
tracks
Контейнер:
FLAC (*.flac)
Количество каналов:
2.0
Разрядность/ЧД:
24/96
Битрейт аудио:
lossless
Время звучания:
00:41:21
Наличие сканов:
только обложка

Треклист:

01. Nanã  04:02
02. Recado Bossanova (The Gift of Love)  03:27
03. Con alma  02:54
04. Aquelas Coisas Todas  04:00
05. Pensativa  05:05
06. Upside Down (Flor de Lis)  04:00
07. Like a Lover (O Cantador)  04:46
08. James  03:49
09. Astronauta (Samba da Pergunta)  03:18
10. Love Dance  06:00

Лог проверки качества
foobar2000 1.4.2 / Dynamic Range Meter 1.1.1
log date: 2021-08-06 22:01:43
--------------------------------------------------------------------------------
Analyzed: Silvia Manco / Recado Bossanova
--------------------------------------------------------------------------------
DR         Peak         RMS     Duration Track
--------------------------------------------------------------------------------
DR9       -1.04 dB   -10.65 dB      4:02 01-NanГЈ
DR10      -0.10 dB   -12.32 dB      3:28 02-Recado Bossanova (The Gift of Love)
DR11      -0.10 dB   -13.89 dB      2:54 03-Con alma
DR10      -0.10 dB   -11.33 dB      4:00 04-Aquelas Coisas Todas
DR10      -0.22 dB   -12.17 dB      5:06 05-Pensativa
DR11      -0.10 dB   -12.47 dB      4:00 06-Upside Down (Flor de Lis)
DR9       -0.92 dB   -12.39 dB      4:46 07-Like a Lover (O Cantador)
DR9       -0.43 dB   -11.12 dB      3:49 08-James
DR10      -0.31 dB   -13.66 dB      3:18 09-Astronauta (Samba da Pergunta)
DR9       -1.91 dB   -13.04 dB      6:00 10-Love Dance
--------------------------------------------------------------------------------
Number of tracks:  10
Official DR value: DR10
Samplerate:        96000 Hz
Channels:          2
Bits per sample:   24
Bitrate:           2553 kbps
Codec:             FLAC
================================================================================
По всем вопросам пишите личное сообщение пользователю M0p94ok.
23:39
185
Нет комментариев. Ваш будет первым!