Поиск

2021 Mat Maneri - Wordless Voices {KAMO} [24-44.1]

2021 Mat Maneri - Wordless Voices {KAMO} [24-44.1]
Дата издания диска:
5 августа 2021
Носитель:
WEB
Формат:
PCM
Тип рипа:
tracks
Контейнер:
FLAC (*.flac)
Количество каналов:
2.0
Разрядность/ЧД:
24/44,1
Битрейт аудио:
lossless
Время звучания:
00:46:36
Наличие сканов:
только обложка

1. Wordless Voices  06:05
2. Sweet Syllables  05:12
3. Furtive Song  06:41
4. Trialogue  28:36

Состав:
  • Mat Maneri — viola
  • Kalle Moberg — accordion
  • Ingebrigt Håker Flaten — double bass
  • the beautiful people of Austin — life and atmosphere.

Recorded and mixed by Max Lorenzen.
Mastered by Christian Obermayer at "Strype Audio".

Лог проверки качества
foobar2000 1.4.2 / Dynamic Range Meter 1.1.1
log date: 2021-08-06 13:35:34
--------------------------------------------------------------------------------
Analyzed: Mat Maneri / Wordless Voices
--------------------------------------------------------------------------------
DR         Peak         RMS     Duration Track
--------------------------------------------------------------------------------
DR10      -0.20 dB   -15.11 dB      6:06 01-Wordless Voices
DR11      -0.20 dB   -15.65 dB      5:13 02-Sweet Syllables
DR10      -0.20 dB   -14.94 dB      6:41 03-Furtive Song
DR9       -0.20 dB   -13.27 dB     28:36 04-Trialogue
--------------------------------------------------------------------------------
Number of tracks:  4
Official DR value: DR10
Samplerate:        44100 Hz
Channels:          2
Bits per sample:   24
Bitrate:           1431 kbps
Codec:             FLAC
================================================================================
12:51
526
Нет комментариев. Ваш будет первым!