Поиск

2021 Eximo Blue - Japanese Jazz Café {Eximo Music} [24-96]

2021 Eximo Blue - Japanese Jazz Café {Eximo Music} [24-96]
Дата издания диска:
2 июня 2021
Носитель:
WEB
Формат:
PCM
Тип рипа:
tracks
Контейнер:
FLAC (*.flac)
Количество каналов:
2.0
Разрядность/ЧД:
24/96
Битрейт аудио:
lossless
Время звучания:
00:54:22
Наличие сканов:
только обложка

Треклист:

01 - Like Travelling East (02:15)
02 - Kobe Jazz (02:11)
03 - Tokyo Twirls (02:10)
04 - Japan Meets New Orleans (02:11)
05 - Groove to Yokohama (02:09)
06 - Take a Bullet (02:14)
07 - The Hipster's Brewing (02:18)
08 - Party in Osaka (02:15)
09 - Jumping In Japan (02:06)
10 - Kyoto Kicking (02:13)
11 - Power of the Rising Sun (02:06)
12 - Notes on Japanese Jazz (02:09)
13 - East Bumps Into West (02:07)
14 - Neo-bop in Nagoya (02:06)
15 - Cafe Orient (02:15)
16 - Fusion in Fukuoka (02:01)
17 - The West Coast of the Island (02:04)
18 - Sapporo Swings (02:13)
19 - Jiving Jazz Cafe's (02:04)
20 - Ragtime Goes Far (02:19)
21 - Cultured Modernization (02:10)
22 - All For Edo (02:07)
23 - Way Out East (02:03)
24 - Island Empire (02:14)
25 - Red on White (02:10)

Лог проверки качества
foobar2000 1.4.2 / Dynamic Range Meter 1.1.1
log date: 2021-08-06 13:27:01
--------------------------------------------------------------------------------
Analyzed: Eximo Blue / Japanese Jazz CafГ©
--------------------------------------------------------------------------------
DR         Peak         RMS     Duration Track
--------------------------------------------------------------------------------
DR12      -2.03 dB   -18.81 dB      2:15 01-Like Travelling East
DR12      -3.01 dB   -20.48 dB      2:11 02-Kobe Jazz
DR11      -3.81 dB   -18.96 dB      2:10 03-Tokyo Twirls
DR13      -4.11 dB   -21.05 dB      2:12 04-Japan Meets New Orleans
DR12      -1.15 dB   -17.23 dB      2:09 05-Groove to Yokohama
DR10      -1.95 dB   -17.20 dB      2:14 06-Take a Bullet
DR13      -3.39 dB   -21.50 dB      2:19 07-The Hipster's Brewing
DR13      -2.95 dB   -20.06 dB      2:16 08-Party in Osaka
DR11      -1.50 dB   -16.83 dB      2:07 09-Jumping In Japan
DR12      -0.90 dB   -17.27 dB      2:14 10-Kyoto Kicking
DR14      -2.22 dB   -19.56 dB      2:06 11-Power of the Rising Sun
DR11      -3.10 dB   -16.82 dB      2:10 12-Notes on Japanese Jazz
DR12      -0.10 dB   -13.73 dB      2:08 13-East Bumps Into West
DR12      -2.91 dB   -18.11 dB      2:06 14-Neo-bop in Nagoya
DR12      -1.07 dB   -16.04 dB      2:15 15-Cafe Orient
DR12      -3.22 dB   -17.55 dB      2:02 16-Fusion in Fukuoka
DR12      -0.10 dB   -14.74 dB      2:04 17-The West Coast of the Island
DR12      -4.85 dB   -20.54 dB      2:14 18-Sapporo Swings
DR12      -0.10 dB   -15.24 dB      2:05 19-Jiving Jazz Cafe's
DR12      -4.18 dB   -21.43 dB      2:20 20-Ragtime Goes Far
DR12      -3.30 dB   -20.41 dB      2:10 21-Cultured Modernization
DR10      -2.65 dB   -15.13 dB      2:08 22-All For Edo
DR12      -2.69 dB   -17.74 dB      2:04 23-Way Out East
DR10      -3.28 dB   -16.62 dB      2:14 24-Island Empire
DR12      -1.45 dB   -17.30 dB      2:11 25-Red on White
--------------------------------------------------------------------------------
Number of tracks:  25
Official DR value: DR12
Samplerate:        96000 Hz
Channels:          2
Bits per sample:   24
Bitrate:           2239 kbps
Codec:             FLAC
================================================================================
По всем вопросам пишите личное сообщение пользователю M0p94ok.
10:17
211
Нет комментариев. Ваш будет первым!