Поиск

2021 Sinne Eeg & Thomas Fonnesbaek - Staying in Touch {Stunt} [24-96]

2021 Sinne Eeg & Thomas Fonnesbaek - Staying in Touch {Stunt} [24-96]
Стили:
Дата издания диска:
9 июля 2021
Издатель (лейбл):
Носитель:
WEB
Формат:
PCM
Тип рипа:
tracks
Контейнер:
FLAC (*.flac)
Количество каналов:
2.0
Разрядность/ЧД:
24/96
Битрейт аудио:
lossless
Время звучания:
00:49:42
Наличие сканов:
только обложка

01 - Spring Waltz (03:26)
02 - Too Close for Comfort (04:14)
03 - Orphans (05:54)
04 - Take Five (03:46)
05 - The Streets of Berlin (04:49)
06 - The Long and Winding Road (04:14)
07 - How Deep is the Ocean (04:53)
08 - Just One of Those Things (01:38)
09 - Round Midnight (07:45)
10 - Those Who Were (06:15)
11 - The Dry Cleaner from Des Moines (02:43)

Состав:
  • Sinne Eeg (vocals)
  • Thomas Fonnesbæk (bass)
  • +
  • Live Strings #3, 5 & 10:
  • Andrea Gyarfas Brahe, Karen Johanne Pedersen (violin)
  • Deanna Said (viola)
  • Live Johansson (cello)
  • Jesper Riis (string arrangements)
Лог проверки качества
foobar2000 1.4.2 / Dynamic Range Meter 1.1.1
log date: 2021-07-10 16:00:05

--------------------------------------------------------------------------------
Analyzed: Sinne Eeg / Staying in Touch
--------------------------------------------------------------------------------

DR         Peak         RMS     Duration Track
--------------------------------------------------------------------------------
DR12      -0.66 dB   -16.10 dB      3:27 01-Spring Waltz
DR11      -0.51 dB   -14.04 dB      4:14 02-Too Close for Comfort
DR11      -0.58 dB   -15.02 dB      5:55 03-Orphans
DR13      -0.78 dB   -16.06 dB      3:47 04-Take Five
DR12      -0.84 dB   -16.26 dB      4:50 05-The Streets of Berlin
DR12      -0.41 dB   -15.98 dB      4:14 06-The Long and Winding Road
DR12      -0.40 dB   -14.70 dB      4:54 07-How Deep is the Ocean?
DR11      -0.57 dB   -13.57 dB      1:39 08-Just One of Those Things
DR12      -0.53 dB   -15.65 dB      7:45 09-Round Midnight
DR10      -0.40 dB   -14.42 dB      6:15 10-Those Who Were
DR11      -0.44 dB   -13.04 dB      2:43 11-The Dry Cleaner from Des Moines
--------------------------------------------------------------------------------

Number of tracks:  11
Official DR value: DR11

Samplerate:        96000 Hz
Channels:          2
Bits per sample:   24
Bitrate:           2379 kbps
Codec:             FLAC
================================================================================
Приватный:
Нет (DHT включён)
Размер:
847.44 Мб (888,601,478 байт) » файлов: 12
Участники:
0 раздают, 0 качают (0 участников всего)
Внешние участники:
9 раздают, 3 качают (12 участников всего) [ Обновить ]
15:00
642
Нет комментариев. Ваш будет первым!