Поиск

2008 Ted Rosenthal Trio - My Funny Valentine (2015) {Venus VHGD-90} [DSD64 ISO]

2008 Ted Rosenthal Trio - My Funny Valentine (2015) {Venus VHGD-90} [DSD64 ISO]
Стили:
Дата записи диска:
5 июня - 6 июня 2007
Место записи:
The Studio, New York City, NY, USA
Дата издания диска:
16 января 2008
Издатель (лейбл):
Номер по каталогу:
VHGD-90
Носитель:
SACD
Формат:
DSD
Тип рипа:
image
Контейнер:
ISO (*.iso)
Количество каналов:
2.0
Разрядность/ЧД:
64 (2,8 MHz/1 Bit)
Битрейт аудио:
lossless
Время звучания:
01:09:01
Наличие сканов:
да

Треклист:

01. You'd Be So Nice to Come Home to  06:46
02. My Funny Valentine  06:43
03. Alone Together  05:15
04. Lover Man  06:58
05. Softly as in A Morning Sunrise  08:26
06. Don't Explain  06:48
07. Autumn Leaves  04:28
08. I Fall in Love too Easily  07:18
09. Summertime  06:23
10. Falling in Love with Love  07:11
11. 'S Wonderful  03:29

Состав:
  • Bass – George Mraz
  • Drums – Al Foster
  • Engineer – Katherine Miller
  • Mixed By, Mastered By – Shuji Kitamura, Tetsuo Hara
  • Piano – Ted Rosenthal
  • Producer – Tetsuo Hara, Todd Barkan
Лог проверки качества
foobar2000 1.6.4 / Dynamic Range Meter 1.1.1
log date: 2021-07-11 23:24:25

--------------------------------------------------------------------------------
Analyzed: TED ROSENTHAL TRIO / My Funny Valentine
--------------------------------------------------------------------------------

DR         Peak         RMS     Duration Track
--------------------------------------------------------------------------------
DR9       -4.31 dB   -15.10 dB      6:42 01-You'd Be So Nice To Come Home To
DR10      -4.63 dB   -18.01 dB      6:38 02-My Funny Valentine
DR9       -4.37 dB   -16.08 dB      5:11 03-Alone Together
DR10      -4.46 dB   -17.10 dB      6:53 04-Lover Man
DR8       -4.13 dB   -15.11 dB      8:21 05-Softly As In A Morning Sunrise
DR11      -4.72 dB   -18.64 dB      6:43 06-Don't Explain
DR8       -4.40 dB   -14.34 dB      4:23 07-Autumn Leaves
DR9       -4.43 dB   -17.05 dB      7:13 08-I Fall In Love Too Easily
DR9       -4.31 dB   -15.42 dB      6:18 09-Summertime
DR8       -4.22 dB   -14.69 dB      7:06 10-Falling In Love With Love
DR8       -4.23 dB   -13.93 dB      3:29 11-'S Wonderful
--------------------------------------------------------------------------------

Number of tracks:  11
Official DR value: DR9

Samplerate:        2822400 Hz / PCM Samplerate: 88200 Hz
Channels:          2
Bits per sample:   1
Bitrate:           5645 kbps
Codec:             DSD64
================================================================================
По всем вопросам пишите личное сообщение пользователю M0p94ok.
15:40
261
Нет комментариев. Ваш будет первым!