Поиск

2019 Béesau - Placement Libre {Universal, Decca} [24-44.1]

2019 Béesau - Placement Libre {Universal, Decca} [24-44.1]
Дата издания диска:
11 октября 2019
Издатель (лейбл):
Носитель:
WEB
Формат:
PCM
Тип рипа:
tracks
Контейнер:
FLAC (*.flac)
Количество каналов:
2.0
Разрядность/ЧД:
24/44,1
Битрейт аудио:
lossless
Время звучания:
00:19:47
Наличие сканов:
только обложка

Треклист:

1. Vue sur mer  03:44
2. Blanche nuit  04:31
3. Enderman  03:34
4. Optimisé  04:01
5. ABIU (Blakesmith & Béesau Remix)  03:57

Состав:
  • Remy Beesau — Trumpet, Composer
Лог проверки качества
foobar2000 1.6.2 / Dynamic Range Meter 1.1.1
log date: 2021-12-22 11:31:54

--------------------------------------------------------------------------------
Analyzed: Béesau / Placement libre
--------------------------------------------------------------------------------

DR         Peak         RMS     Duration Track
--------------------------------------------------------------------------------
DR7       -0.30 dB    -9.42 dB      3:46 01-Vue sur mer
DR5       -0.30 dB    -8.45 dB      4:32 02-Blanche nuit
DR5       -0.30 dB    -8.99 dB      3:34 03-Enderman
DR6       -0.30 dB    -8.56 dB      4:02 04-Optimisé
DR6       -0.30 dB    -8.73 dB      3:57 05-ABIU (Blakesmith & Béesau Remix)
--------------------------------------------------------------------------------

Number of tracks:  5
Official DR value: DR6

Samplerate:        44100 Hz
Channels:          2
Bits per sample:   24
Bitrate:           1571 kbps
Codec:             FLAC
================================================================================
По всем вопросам пишите личное сообщение пользователю M0p94ok.
12:03
265
Нет комментариев. Ваш будет первым!