Поиск

2021 Roy Brooks - Understanding {Cellar Live} [24-96]

2021 Roy Brooks - Understanding {Cellar Live} [24-96]
Стили:
Дата записи диска:
1 ноября 1970
Место записи:
The Famous Ballroom, Baltimore, MD, USA
Дата издания диска:
23 июля 2021
Издатель (лейбл):
Носитель:
WEB
Формат:
PCM
Тип рипа:
tracks
Контейнер:
FLAC (*.flac)
Количество каналов:
2.0
Разрядность/ЧД:
24/96
Битрейт аудио:
lossless
Время звучания:
02:03:33
Наличие сканов:
только обложка

1. Introduction 00:25
2. Prelude To Understanding 21:34
3. Understanding 20:10
4. Billie's Bounce 21:06
5. Zoltan 23:18
6. Taurus Woman 32:25
7. The Theme 04:31

Состав:
  •     Bass – Cecil McBee
  •     Drums – Roy Brooks
  •     Engineer – Vernon Welsh
  •     Executive-Producer – Raymon Torchinsky
  •     Interviewee [Liner Notes] – Carlos Garnett, Cecil McBee, Reggie Workman
  •     Liner Notes – Charles McPherson, Herb Boyd, Louis Hayes, Mark Stryker
  •     Piano – Harold Mabern
  •     Producer [Associate Producer] – John Fowler (9), Raymon Torchinsky
  •     Producer, Liner Notes, Interviewer [Liner Notes] – Cory Weeds, Zev Feldman
  •     Restoration – Chris Gestrin
  •     Tenor Saxophone – Carlos Garnett
  •     Trumpet – Woody Shaw
Лог проверки качества
foobar2000 1.4.2 / Dynamic Range Meter 1.1.1
log date: 2021-07-24 20:14:19
--------------------------------------------------------------------------------
Analyzed: Roy Brooks / Understanding
--------------------------------------------------------------------------------
DR         Peak         RMS     Duration Track
--------------------------------------------------------------------------------
DR14      -3.40 dB   -20.86 dB      0:26 01-Introduction
DR11      -1.00 dB   -15.25 dB     21:34 02-Prelude to Understanding
DR11      -1.00 dB   -16.14 dB     20:11 03-Understanding
DR11      -1.00 dB   -13.86 dB     21:07 04-Billie's Bounce
DR10      -1.00 dB   -13.53 dB     23:18 05-Zoltan
DR10      -0.38 dB   -14.06 dB     32:26 06-Taurus Woman
DR11      -1.02 dB   -15.50 dB      4:32 07-The Theme
--------------------------------------------------------------------------------
Number of tracks:  7
Official DR value: DR11
Samplerate:        96000 Hz
Channels:          2
Bits per sample:   24
Bitrate:           2917 kbps
Codec:             FLAC
================================================================================
Приватный:
Нет (DHT включён)
Размер:
2.47 Гб (2,657,064,930 байт) » файлов: 8
Участники:
0 раздают, 0 качают (0 участников всего)
Внешние участники:
7 раздают, 2 качают (9 участников всего) [ Обновить ]
12:59
528
Нет комментариев. Ваш будет первым!