Поиск

2021 Roy Waade - Perceptions & Perspectives {Lydmuren AS} [24-44.1]

2021 Roy Waade - Perceptions & Perspectives {Lydmuren AS} [24-44.1]
Стили:
Дата издания диска:
23 июля 2021
Носитель:
WEB
Формат:
PCM
Тип рипа:
tracks
Контейнер:
FLAC (*.flac)
Количество каналов:
2.0
Разрядность/ЧД:
24/44,1
Битрейт аудио:
lossless
Время звучания:
00:45:18
Наличие сканов:
только обложка

01 - Nothing in Between (03:59)
02 - Soloppgang ved Borgenfjorden (04:46)
03 - Back on Track (03:36)
04 - The Elusive Game (06:18)
05 - Kristin (04:51)
06 - Parus Major (a Birdsong) (03:51)
07 - 2020 No More Visits (03:22)
08 - The Last Arrival (05:08)
09 - Åpen cab i Trondelag (03:50)
10 - The Blue Door (05:31)

Лог проверки качества
foobar2000 1.4.2 / Dynamic Range Meter 1.1.1
log date: 2021-07-24 20:39:18
--------------------------------------------------------------------------------
Analyzed: Roy Waade / Perceptions & Perspectives
--------------------------------------------------------------------------------
DR         Peak         RMS     Duration Track
--------------------------------------------------------------------------------
DR9       -0.26 dB   -10.56 dB      4:00 01-Nothing in Between
DR11      -0.26 dB   -14.76 dB      4:47 02-Soloppgang ved Borgenfjorden
DR9       -0.26 dB   -10.95 dB      3:37 03-Back on Track
DR9       -0.26 dB   -11.07 dB      6:18 04-The Elusive Game
DR11      -0.26 dB   -13.91 dB      4:52 05-Kristin
DR9       -0.26 dB   -10.25 dB      3:51 06-Parus Major (a Birdsong)
DR11      -0.26 dB   -14.51 dB      3:22 07-2020 No More Visits
DR9       -0.26 dB   -11.37 dB      5:09 08-The Last Arrival
DR12      -0.26 dB   -14.64 dB      3:51 09-AМЉpen cab i TrГёndelag
DR10      -0.26 dB   -13.48 dB      5:32 10-The Blue Door
--------------------------------------------------------------------------------
Number of tracks:  10
Official DR value: DR10
Samplerate:        44100 Hz
Channels:          2
Bits per sample:   24
Bitrate:           1332 kbps
Codec:             FLAC
================================================================================
14:15
423
Нет комментариев. Ваш будет первым!