Поиск

2021 Robert Len - Help {2xHD} [24-352.8]

2021 Robert Len - Help {2xHD} [24-352.8]
Стили:
Издатель (лейбл):
Битрейт аудио:
lossless
Доп. инфо:

Формат записи/Источник записи: [DXD][OF]
Наличие водяных знаков: Нет
Год издания/переиздания диска: 2021
Продолжительность: 00:41:15
Наличие сканов в содержимом раздачи: Буклет PDF

Контейнер: FLAC (*.flac)
Тип рипа: tracks
Разрядность: 24/352
Формат: DXD
Количество каналов: 2.0

Источник (релизер): pic

Лог проверки качества
foobar2000 1.6.3 / Dynamic Range Meter 1.1.1
log date: 2021-03-12 22:18:27

--------------------------------------------------------------------------------
Analyzed: Robert Len / Robert Len, Help
--------------------------------------------------------------------------------

DR         Peak         RMS     Duration Track
--------------------------------------------------------------------------------
DR11       0.00 dB   -14.59 dB      3:41 01-Mother Earth
DR10      -2.48 dB   -16.11 dB      3:13 02-Concierto de Aranjuez (adagio)
DR10      -0.30 dB   -13.14 dB      2:56 03-A Farewell
DR10      -3.27 dB   -16.72 dB      3:05 04-Pavane pour une infante défunte
DR11      -0.15 dB   -14.39 dB      2:58 05-Help!
DR13      -0.43 dB   -17.07 dB      3:54 06-Calling you
DR11       0.00 dB   -15.34 dB      3:06 07-All Is Not Lost
DR10      -0.64 dB   -13.25 dB      2:48 08-The Joke
DR11      -1.36 dB   -15.75 dB      2:56 09-Alone
DR10      -1.07 dB   -14.68 dB      3:37 10-The Sound of Silence
DR10       0.00 dB   -14.20 dB      3:23 11-In the Moment
DR13      -0.50 dB   -17.85 dB      5:37 12-Until My Last Breath
--------------------------------------------------------------------------------

Number of tracks:  12
Official DR value: DR11

Samplerate:        352800 Hz
Channels:          2
Bits per sample:   24
Bitrate:           9199 kbps
Codec:             FLAC
================================================================================
No seeders - write personal message to M0p94ok. Any questions - support@pro-jazz.com.
Нет сидеров - пишите в личку M0p94ok. Есть вопросы - support@pro-jazz.com
20:35
69
Нет комментариев. Ваш будет первым!