Поиск

2017 Bachiba Trio - Guitar Jazz- Contemporary Jazz from Brazil {Smoothnotes} [24-96]

2017 Bachiba Trio - Guitar Jazz- Contemporary Jazz from Brazil {Smoothnotes} [24-96]
Дата издания диска:
14 сентября 2017
Носитель:
WEB
Формат:
PCM
Тип рипа:
tracks
Контейнер:
FLAC (*.flac)
Количество каналов:
2.0
Разрядность/ЧД:
24/96
Битрейт аудио:
lossless
Время звучания:
00:47:53
Наличие сканов:
только обложка
Наличие водяных знаков:
нет
Страна-производитель диска (релиза):
Brazil
Релизёр (источник):
M0p94ok

Треклист:

01. Passeggiata a laetoli   04:48
02. The Gift   04:41
03. Tiber Samba   05:44
04. The Upper Floor   03:26
05. Domingo   06:27
06. Un coro per bachiba   05:32
07. Sadiman   05:44
08. La casa del jeko   03:36
09. Bad Morning Mood   03:33
10. Levante   04:19

Доп. инфо:

Первый альбом трио Бачиба, группа, объединяющая трех музыкантов разного происхождения и разного образования. В основе проекта - общение и дружба, которые укреплялись годами в ходе многочисленных выступлений. Запись диска завершилась плодотворным периодом, когда добавлялись новые композиции. Десять треков на альбоме - это выражение этого опыта, основанного на дружбе и радости создания музыки. Песни, вдохновленные бразильской музыкой, особенно из самбы (Tiber Samba) и Босановы (Sandiman, Passeggiata a Laetoli), но также страдают от влияния черной американской музыки, в первую очередь джаза и фанка (The gift, The upper floor). Все оригинальные композиции характеризуются поиском простых, но не тривиальных мелодий, способных закрепиться в памяти слушателя с первого прослушивания. Энергия, напряжение, но и тонкая изысканность. Это формула трио Бачиба.

https://www.e-onkyo.com/music/album/gbm044/
https://ie.7digital.com/artist/bachiba-trio/release/guitar-jazz-contemporary-jazz-from-brazil-6883480
https://www.highresaudio.com/en/album/view/qv7hdx/bachiba-trio-guitar-jazz-contemporary-jazz-from-brazil

Лог проверки качества
foobar2000 1.6.2 / Dynamic Range Meter 1.1.1
log date: 2021-05-22 00:09:07

--------------------------------------------------------------------------------
Analyzed: Bachiba Trio / Guitar Jazz: Contemporary Jazz from Brazil
--------------------------------------------------------------------------------

DR         Peak         RMS     Duration Track
--------------------------------------------------------------------------------
DR13       0.00 dB   -15.20 dB      4:49 01-Passeggiata a laetoli
DR12       0.00 dB   -14.22 dB      4:42 02-The Gift
DR11       0.00 dB   -12.24 dB      5:44 03-Tiber Samba
DR13       0.00 dB   -14.21 dB      3:26 04-The Upper Floor
DR11       0.00 dB   -13.47 dB      6:27 05-Domingo
DR11       0.00 dB   -12.88 dB      5:32 06-Un coro per bachiba
DR13       0.00 dB   -14.51 dB      5:45 07-Sadiman
DR13       0.00 dB   -16.22 dB      3:36 08-La casa del jeko
DR13       0.00 dB   -14.25 dB      3:33 09-Bad Morning Mood
DR11       0.00 dB   -13.60 dB      4:19 10-Levante
--------------------------------------------------------------------------------

Number of tracks:  10
Official DR value: DR12

Samplerate:        96000 Hz
Channels:          2
Bits per sample:   24
Bitrate:           3033 kbps
Codec:             FLAC
================================================================================
Приватный:
Нет (DHT включён)
Размер:
1.04 Гб (1,113,600,229 байт) » файлов: 12
Участники:
3 раздают, 1 качают (4 участников всего)
Внешние участники:
--- [ Обновить ]
No seeders - write personal message to M0p94ok. Any questions - support@pro-jazz.com.
Нет сидеров - пишите в личку M0p94ok. Есть вопросы - support@pro-jazz.com
00:24
36
Нет комментариев. Ваш будет первым!