Поиск

2015 Sharel Cassity Quartet - Manhattan Romance {Venus} [DSD64 ISO]

2015 Sharel Cassity Quartet - Manhattan Romance {Venus} [DSD64 ISO]
Стили:
Дата записи диска:
26 февраля 2014
Место записи:
Avatar Studios, New York City, NY, USA
Издатель (лейбл):
Номер по каталогу:
VHGD-94
Битрейт аудио:
lossless
Доп. инфо:

Формат записи/Источник записи: [SACD-R][OF]
Наличие водяных знаков: Нет
Год издания диска: 2015
Продолжительность: 00:47:33
Наличие сканов в содержимом раздачи: Только обложка альбома

Контейнер: ISO (*.iso)
Тип рипа: image
Разрядность: 64(2,8 MHz/1 Bit)
Формат: DSD
Количество каналов: 2.0

Источник (релизер): jazzy pic

Лог проверки качества
foobar2000 1.6.4 / Dynamic Range Meter 1.1.1
log date: 2021-03-13 21:10:10

--------------------------------------------------------------------------------
Analyzed: SHAREL CASSITY QUARTET / Manhattan Romance
--------------------------------------------------------------------------------

DR         Peak         RMS     Duration Track
--------------------------------------------------------------------------------
DR9       -4.25 dB   -14.61 dB      6:09 01-Besame Mucho
DR8       -3.94 dB   -14.52 dB      4:41 02-Gingerbread Boy
DR9       -4.26 dB   -15.42 dB      5:55 03-Historia De Un Amor
DR10      -4.44 dB   -16.79 dB      5:41 04-My Funny Valentine
DR9       -4.44 dB   -15.12 dB      6:28 05-Over The Rainbow
DR10      -4.46 dB   -16.74 dB      8:02 06-I Will Wait For You
DR10      -4.22 dB   -16.33 dB      5:24 07-Black Orpheus
DR10      -4.39 dB   -15.53 dB      5:12 08-So In Love
--------------------------------------------------------------------------------

Number of tracks:  8
Official DR value: DR9

Samplerate:        2822400 Hz / PCM Samplerate: 352800 Hz
Channels:          2
Bits per sample:   1
Bitrate:           5645 kbps
Codec:             DSD64
================================================================================
No seeders - write personal message to M0p94ok. Any questions - support@pro-jazz.com.
Нет сидеров - пишите в личку M0p94ok. Есть вопросы - support@pro-jazz.com
00:43
89
Нет комментариев. Ваш будет первым!