Поиск

2019 Adam Birnbaum - Steinway Standards {Steinway and Sons} [24-192]

2019 Adam Birnbaum - Steinway Standards {Steinway and Sons} [24-192]
Стили:
Дата издания диска:
6 сентября 2019
Носитель:
WEB
Формат:
PCM
Тип рипа:
tracks
Контейнер:
FLAC (*.flac)
Количество каналов:
2.0
Разрядность/ЧД:
24/192
Битрейт аудио:
lossless
Время звучания:
01:09:06
Наличие сканов:
только обложка
Наличие водяных знаков:
нет
Страна-производитель диска (релиза):
USA
Релизёр (источник):
M0p94ok

Треклист:

01. My Shining Hour  04:06
02. Someday My Prince Will Come  04:33
03. Oleo  03:47
04. Prelude in C Major (After J. S. Bach's BWV 846)  03:33
05. On Green Dolphin Street  05:06
06. Billie's Bounce  04:00
07. 'Round Midnight  05:48
08. Corcovado  05:01
09. Up Jumped Spring  05:08
10. Memories of You  05:43
11. Take the "A" Train  04:12
12. Recorda Me  04:56
13. Bluesette  04:05
14. There Is No Greater Love  04:51
15. Out of Nowhere  04:10

Лог проверки качества
foobar2000 1.6.2 / Dynamic Range Meter 1.1.1
log date: 2021-05-21 19:10:43

--------------------------------------------------------------------------------
Analyzed: Adam Birnbaum / Steinway Standards
--------------------------------------------------------------------------------

DR         Peak         RMS     Duration Track
--------------------------------------------------------------------------------
DR12      -0.30 dB   -15.41 dB      4:07 01-My Shining Hour
DR13      -0.30 dB   -16.45 dB      4:34 02-Someday My Prince Will Come
DR12      -0.30 dB   -14.68 dB      3:48 03-Oleo
DR12      -0.36 dB   -16.37 dB      3:34 04-Prelude in C Major (After J. S. Bach's BWV 846)
DR13      -0.30 dB   -15.31 dB      5:06 05-On Green Dolphin Street
DR13      -0.30 dB   -14.95 dB      4:01 06-Billie's Bounce
DR12      -0.25 dB   -15.29 dB      5:49 07-Round Midnight
DR14      -0.30 dB   -16.73 dB      5:01 08-Corcovado
DR13      -0.30 dB   -15.30 dB      5:08 09-Up Jumped Spring
DR13      -0.30 dB   -16.54 dB      5:43 10-Memories of You
DR12      -0.30 dB   -15.16 dB      4:12 11-Take the "A" Train
DR12      -0.30 dB   -14.66 dB      4:56 12-Recorda Me
DR13      -0.30 dB   -15.66 dB      4:05 13-Bluesette
DR13      -0.27 dB   -15.24 dB      4:51 14-There Is No Greater Love
DR14      -0.30 dB   -16.12 dB      4:10 15-Out of Nowhere
--------------------------------------------------------------------------------

Number of tracks:  15
Official DR value: DR13

Samplerate:        192000 Hz
Channels:          2
Bits per sample:   24
Bitrate:           4880 kbps
Codec:             FLAC
================================================================================
Приватный:
Нет (DHT включён)
Размер:
2.39 Гб (2,562,151,027 байт) » файлов: 18
Участники:
4 раздают, 0 качают (4 участников всего)
Внешние участники:
--- [ Обновить ]
No seeders - write personal message to M0p94ok. Any questions - support@pro-jazz.com.
Нет сидеров - пишите в личку M0p94ok. Есть вопросы - support@pro-jazz.com
19:37
41
Нет комментариев. Ваш будет первым!