Поиск

2019 Billie Holliday - Simply ... Lady Day! {Jube Legends} [24-48]

2019 Billie Holliday - Simply ... Lady Day! {Jube Legends} [24-48]
Стили:
Битрейт аудио:
lossless
Доп. инфо:

Формат записи/Источник записи: [TR24][OF]
Издание: Remastered
Год издания/переиздания диска: 2019
Издатель (лейбл): Jube Legends
Продолжительность: 03:50:48
Наличие сканов в содержимом раздачи: Нет

Контейнер: FLAC (*.flac)
Тип рипа: tracks
Разрядность: 24/48
Количество каналов: 2.0

Источник (релизер): Qobuz

Лог проверки качества
foobar2000 1.4.3 / Dynamic Range Meter 1.1.1
log date: 2021-02-16 05:51:34

--------------------------------------------------------------------------------
Analyzed: Abel Meeropol / Simply ... Lady Day! (2019 Remaster) (1)
          Al Dubin / Simply ... Lady Day! (2019 Remaster) (2)
          Alan Jay Lerner / Simply ... Lady Day! (2019 Remaster) (3)
          Ann Ronnell / Simply ... Lady Day! (2019 Remaster) (4)
          Arthur Freed / Simply ... Lady Day! (2019 Remaster) (5-6)
          Billie Holiday / Simply ... Lady Day! (2019 Remaster) (7-11)
          Billy Rose / Simply ... Lady Day! (2019 Remaster) (12)
          Bob Parker / Simply ... Lady Day! (2019 Remaster) (13)
          Bob Russell / Simply ... Lady Day! (2019 Remaster) (14)
          Brooks Bowman / Simply ... Lady Day! (2019 Remaster) (15)
          Channing Pollock / Simply ... Lady Day! (2019 Remaster) (16)
          Cole Porter / Simply ... Lady Day! (2019 Remaster) (17-18)
          Dan Fisher / Simply ... Lady Day! (2019 Remaster) (19)
          David Messner / Simply ... Lady Day! (2019 Remaster) (20)
          Don Redman / Simply ... Lady Day! (2019 Remaster) (21)
          Dorothy Fields / Simply ... Lady Day! (2019 Remaster) (22-23)
          Eddie De Lange / Simply ... Lady Day! (2019 Remaster) (24-26)
          Edward Heyman / Simply ... Lady Day! (2019 Remaster) (27-28)
          Edwrd Heyman / Simply ... Lady Day! (2019 Remaster) (29)
          Einar Aaron Swan / Simply ... Lady Day! (2019 Remaster) (30)
          Ernest Tucker / Simply ... Lady Day! (2019 Remaster) (31)
          Frankie Laine / Simply ... Lady Day! (2019 Remaster) (32)
          George Cates / Simply ... Lady Day! (2019 Remaster) (33)
          Grant Clarke / Simply ... Lady Day! (2019 Remaster) (34)
          Gus Kahn / Simply ... Lady Day! (2019 Remaster) (35)
          Guy Lombardo / Simply ... Lady Day! (2019 Remaster) (36)
          Harold Adamson / Simply ... Lady Day! (2019 Remaster) (37)
          Harry Woods / Simply ... Lady Day! (2019 Remaster) (38-39)
          Haven Gillespie / Simply ... Lady Day! (2019 Remaster) (40)
          Heyward DuBose / Simply ... Lady Day! (2019 Remaster) (41)
          Holt Marvell / Simply ... Lady Day! (2019 Remaster) (42)
          Irving Berlin / Simply ... Lady Day! (2019 Remaster) (43-44)
          Jack Lawrence / Simply ... Lady Day! (2019 Remaster) (45)
          Jim Noir / Simply ... Lady Day! (2019 Remaster) (46)
          Joe Burke / Simply ... Lady Day! (2019 Remaster) (47)
          Johnny Mercer / Simply ... Lady Day! (2019 Remaster) (48-49)
          Leo Robin / Simply ... Lady Day! (2019 Remaster) (50-51)
          Lorenz Hart / Simply ... Lady Day! (2019 Remaster) (52-54)
          Maceo Pinkard / Simply ... Lady Day! (2019 Remaster) (55)
          Marty Symes / Simply ... Lady Day! (2019 Remaster) (56)
          Oscar Hammerstein II / Simply ... Lady Day! (2019 Remaster) (57-58)
          Peter de Rose / Simply ... Lady Day! (2019 Remaster) (59)
          Peter Tinturin / Simply ... Lady Day! (2019 Remaster) (60-61)
          Richard A. Whiting / Simply ... Lady Day! (2019 Remaster) (62)
          Robert Graham / Simply ... Lady Day! (2019 Remaster) (63)
          Seymour Simons / Simply ... Lady Day! (2019 Remaster) (64)
          Stuart Gorrell / Simply ... Lady Day! (2019 Remaster) (65)
          Ted Koehler / Simply ... Lady Day! (2019 Remaster) (66)
          Thomas Fats Waller / Simply ... Lady Day! (2019 Remaster) (67)
          Vernon Duke / Simply ... Lady Day! (2019 Remaster) (68)
          Wilson Wesley / Simply ... Lady Day! (2019 Remaster) (69)
--------------------------------------------------------------------------------

DR         Peak         RMS     Duration Track
--------------------------------------------------------------------------------
DR10       0.00 dB   -14.52 dB      3:05 49-Strange fruit
DR13       0.00 dB   -16.98 dB      2:51 35-Dames: Dames: I only have eyes for you
DR12       0.00 dB   -15.13 dB      2:48 19-The blue angel: Falling in love again
DR9        0.00 dB   -11.51 dB      3:23 56-Willow, weep for me (Live)
DR11       0.00 dB   -14.03 dB      3:14 13-I cried for you
DR11       0.00 dB   -14.28 dB      3:15 64-I cried for you (Live)
DR11       0.00 dB   -14.28 dB      2:36 07-Billie's Blues
DR10       0.00 dB   -12.30 dB      7:56 54-Fine and mellow
DR11       0.00 dB   -13.33 dB      2:44 58-Don't explain (Live)
DR11       0.00 dB   -15.15 dB     11:49 67-Jam Session on "Billie's Blues"
DR10       0.00 dB   -11.84 dB      0:33 69-Statement on the Blues
DR13       0.00 dB   -14.57 dB      2:39 18-Back in your own backyard
DR14       0.00 dB   -16.93 dB      2:58 03-I wished on the moon
DR12       0.00 dB   -15.51 dB      4:10 45-Concerto for Cootie: Do nothing till you hear from me
DR13       0.00 dB   -17.18 dB      2:52 33-East of the sun and west of the moon
DR11       0.00 dB   -14.31 dB      2:51 62-My man (Live)
DR14       0.00 dB   -16.30 dB      2:54 20-Paris: Paris: Let's do It, let's fall in love
DR13       0.00 dB   -17.19 dB      3:10 34-Born to dance: Easy to love
DR13       0.00 dB   -16.74 dB      3:28 46-Good morning, headache
DR12       0.00 dB   -14.27 dB      2:34 31-Be fair to me, baby
DR12       0.00 dB   -15.10 dB      5:33 47-Gee, baby, ain't I good for you?
DR10      -1.73 dB   -13.68 dB      2:49 04-Swing Time: A fine romance
DR13       0.00 dB   -16.77 dB      2:55 10-I must have That man
DR12       0.00 dB   -15.66 dB      3:11 21-Solitude
DR13       0.00 dB   -15.05 dB      3:00 26-The blues Are brewin'
DR15       0.00 dB   -17.94 dB      2:58 40-Moonglow
DR14       0.00 dB   -17.28 dB      6:16 51-Body and soul
DR12       0.00 dB   -16.31 dB      3:23 66-I cover the waterfront (Live)
DR10       0.00 dB   -11.91 dB      3:30 59-You've changed
DR13       0.00 dB   -17.70 dB      4:55 44-Blonde Crazy: When your lover has gone
DR12       0.00 dB   -14.22 dB      3:06 30-Rocky Mountain Blues
DR12       0.00 dB   -15.27 dB      4:21 48-We'll be together again
DR15       0.00 dB   -19.47 dB      2:56 39-If the moon turns green
DR11       0.00 dB   -13.83 dB      2:50 22-Am I blue?
DR11       0.00 dB   -13.85 dB      3:17 24-Whoopee: Love me or leave me
DR13       0.00 dB   -15.35 dB      2:50 14-A sailboat in the moonlight
DR14       0.00 dB   -19.42 dB      3:43 37-Dancing Lady: Everything I have Is yours
DR14       0.00 dB   -16.59 dB      2:53 01-What a little moonlight can do
DR12       0.00 dB   -14.42 dB      2:37 65-What a little moonlight can do (Live)
DR14       0.00 dB   -17.57 dB      2:53 50-You go to my head
DR11       0.00 dB   -14.27 dB      2:53 08-Porgy and Bess: Summertime
DR13       0.00 dB   -16.65 dB      3:35 53-These foolish things
DR11       0.00 dB   -13.44 dB      3:05 16-On the avenue: This year's kisses
DR15       0.00 dB   -18.06 dB      2:34 41-Remember
DR16       0.00 dB   -19.66 dB      3:22 42-Tenderly
DR13       0.00 dB   -15.33 dB      2:35 15-Me, myself and I
DR11       0.00 dB   -12.90 dB      3:12 05-Pennies from heaven
DR11       0.00 dB   -16.04 dB      3:09 06-If you were mine
DR16       0.00 dB   -20.36 dB      3:35 43-P.S. - I love you!
DR14       0.00 dB   -17.87 dB      2:57 02-Miss Brown to you
DR15       0.00 dB   -17.41 dB      3:03 12-Easy living
DR15       0.00 dB   -17.89 dB      3:27 32-Blue Moon
DR10       0.00 dB   -11.41 dB      3:29 55-Mississippi: Easy to remember (Live)
DR11       0.00 dB   -14.96 dB      2:43 60-Blue Moon (Live)
DR12       0.00 dB   -14.37 dB      1:41 63-Them there eyes (Live)
DR14       0.00 dB   -16.54 dB      2:57 27-No greater love
DR10       0.00 dB   -12.43 dB      3:08 17-Show Boat: Can't help lovin' dat man
DR12       0.00 dB   -15.52 dB      6:39 68-The New Moon: Jam Session on "Lover, come back to me"
DR12       0.00 dB   -13.61 dB      3:05 09-That's life I guess
DR14       0.00 dB   -17.27 dB      2:59 11-Foolin' myself
DR9        0.00 dB   -10.56 dB      2:24 57-Foolin' myself (Live)
DR13       0.00 dB   -16.85 dB      3:09 52-He's funny That way
DR12       0.00 dB   -15.49 dB      2:44 25-You'd better go now
DR11       0.00 dB   -13.15 dB      1:44 61-All of me (Live)
DR12       0.00 dB   -16.16 dB      3:15 23-Georgia on my mind
DR14       0.00 dB   -18.57 dB      3:13 38-I can't face the music
DR13       0.00 dB   -15.19 dB      1:59 29-Blue turning grey over me
DR14       0.00 dB   -17.41 dB      3:40 36-Autumn in New York
DR13       0.00 dB   -15.27 dB      3:14 28-Do your duty
--------------------------------------------------------------------------------

Number of tracks:  69
Official DR value: DR12

Samplerate:        48000 Hz
Channels:          2
Bits per sample:   24
Bitrate:           757 kbps
Codec:             FLAC
================================================================================
No seeders - write personal message to M0p94ok. Any questions - support@pro-jazz.com.
Нет сидеров - пишите в личку M0p94ok. Есть вопросы - support@pro-jazz.com
17:29
71
Нет комментариев. Ваш будет первым!