Поиск

2021 Charles Lloyd & The Marvels - Tone Poem {Blue Note} [24-96]

2021 Charles Lloyd & The Marvels - Tone Poem {Blue Note} [24-96]
Стили:
Издатель (лейбл):
Битрейт аудио:
lossless
Доп. инфо:

Формат записи/Источник записи: [TR24][OF]
Наличие водяных знаков: Нет
Год издания: 2021
Продолжительность: 01:10:31
Наличие сканов в содержимом раздачи: Только обложка альбома
Контейнер: FLAC (*.flac)
Тип рипа: tracks
Разрядность: 24/96
Формат: PCM
Количество каналов: 2.0
Источник (релизер): highresaudio.com

Лог проверки качества
foobar2000 1.4.8 / Dynamic Range Meter 1.1.1
log date: 2021-03-12 20:52:55

--------------------------------------------------------------------------------
Analyzed: Charles Lloyd & The Marvels / Tone Poem
--------------------------------------------------------------------------------

DR         Peak         RMS     Duration Track
--------------------------------------------------------------------------------
DR13      -0.20 dB   -16.14 dB      3:10 01-Peace
DR11      -0.20 dB   -12.99 dB      4:58 02-Ramblin'
DR12      -0.20 dB   -15.44 dB      6:17 03-Anthem
DR12      -0.20 dB   -15.04 dB      6:30 04-Dismal Swamp
DR11      -0.20 dB   -14.97 dB      9:02 05-Tone Poem
DR12      -0.20 dB   -14.53 dB     10:25 06-Monk's Mood
DR11      -0.20 dB   -13.52 dB     10:03 07-Ay Amor (Live)
DR12      -0.20 dB   -13.99 dB     10:49 08-Lady Gabor
DR11      -0.20 dB   -14.98 dB      8:35 09-Prayer
--------------------------------------------------------------------------------

Number of tracks:  9
Official DR value: DR12
Samplerate:        96000 Hz
Channels:          2
Bits per sample:   24
Bitrate:           2814 kbps
Codec:             FLAC
================================================================================
No seeders - write personal message to M0p94ok. Any questions - support@pro-jazz.com.
Нет сидеров - пишите в личку M0p94ok. Есть вопросы - support@pro-jazz.com
14:57
81
Нет комментариев. Ваш будет первым!