Вы используете незарегистрированную версию компонента "Вкладки"!

Поиск

2021 Rob Frye - Exoplanet {Astral Spirits} [24-48]

2021 Rob Frye - Exoplanet {Astral Spirits} [24-48]
Дата издания диска:
23 апреля 2021
Битрейт аудио:
lossless
Доп. инфо:

Формат записи/Источник записи: [TR24][OF]
Наличие водяных знаков: Нет
Год издания/переиздания диска: 2021
Издатель (лейбл): Astral Spirits
Продолжительность: 39:21
Наличие сканов в содержимом раздачи: Только обложка альбома
Контейнер: FLAC (*.flac)
Тип рипа: tracks
Разрядность: 24/48
Формат: PCM
Количество каналов: 2.0

Источник (релизер): Bandcamp

Лог проверки качества
foobar2000 1.6.6 / Dynamic Range Meter 1.1.1
log date: 2021-06-04 10:27:21

--------------------------------------------------------------------------------
Analyzed: Rob Frye / Exoplanet
--------------------------------------------------------------------------------

DR         Peak         RMS     Duration Track
--------------------------------------------------------------------------------
DR8       -0.43 dB   -10.88 dB      3:43 01-Sunrise on Pruhina
DR10      -0.36 dB   -11.63 dB      6:15 02-XC175020
DR14      -1.77 dB   -21.13 dB      3:35 03-Innercosmos
DR9       -0.40 dB   -10.98 dB      6:29 04-Jupiter Control
DR11      -0.40 dB   -16.23 dB      6:57 05-XC222182 feat. Edbrass Brasil
DR9       -0.39 dB   -11.06 dB      6:46 06-Lightship Sgr A Star
DR11      -0.40 dB   -13.07 dB      3:55 07-Goldilocks
DR9       -2.43 dB   -13.82 dB      1:42 08-Sunset on Jgelu
--------------------------------------------------------------------------------

Number of tracks:  8
Official DR value: DR10

Samplerate:        48000 Hz
Channels:          2
Bits per sample:   24
Bitrate:           1332 kbps
Codec:             FLAC
================================================================================
Any questions - support@pro-jazz.com. Есть вопросы - support@pro-jazz.com
19:39
36
Нет комментариев. Ваш будет первым!