Вы используете незарегистрированную версию компонента "Вкладки"!

Поиск

1956 Ken Colyer's Jazzmen - Club Session With Colyer! (2020) {RevOla} [24-96]

1956 Ken Colyer's Jazzmen - Club Session With Colyer! (2020) {RevOla} [24-96]
Дата переиздания диска:
26 июня 2020
Издатель (лейбл):
Битрейт аудио:
lossless
Доп. инфо:

Формат записи/Источник записи: [TR24][OF]
Издание: Remastered
Год издания/переиздания диска: 1956/2020
Продолжительность: 00:44:32
Наличие сканов в содержимом раздачи: Нет
Контейнер: FLAC (*.flac)
Тип рипа: tracks
Разрядность: 24/96
Количество каналов: 2.0

Источник (релизер): Qobuz

Лог проверки качества
foobar2000 1.6.2 / Dynamic Range Meter 1.1.1
log date: 2021-01-20 21:04:11

--------------------------------------------------------------------------------
Analyzed: Ken Colyer / Club Session With Colyer!
--------------------------------------------------------------------------------

DR         Peak         RMS     Duration Track
--------------------------------------------------------------------------------
DR9        0.00 dB   -12.10 dB      1:51 01-Uptown Bumps (Remastered)
DR11       0.00 dB   -12.39 dB      5:57 02-Blame It On The Blues (Remastered)
DR9        0.00 dB   -10.85 dB      3:19 03-Creole Song (Remastered)
DR9        0.00 dB   -10.68 dB      4:10 04-Chrysanthemum Rag (Remastered)
DR9        0.00 dB   -11.44 dB      6:31 05-Snag It (Remastered)
DR9        0.00 dB   -11.01 dB      4:02 06-The Thriller Rag (Remastered)
DR12       0.00 dB   -12.98 dB      4:27 07-Black Cat On The Fence (Remastered)
DR12       0.00 dB   -13.27 dB      7:38 08-The Old Rugged Cross (Remastered)
DR9        0.00 dB   -10.04 dB      4:17 09-Walking With The King (Remastered)
DR10       0.00 dB   -11.93 dB      2:24 10-Home Sweet Home/Auf Wiederseh'n Sweetheart (Remastered)
--------------------------------------------------------------------------------

Number of tracks:  10
Official DR value: DR10

Samplerate:        96000 Hz
Channels:          2
Bits per sample:   24
Bitrate:           2134 kbps
Codec:             FLAC
================================================================================
Any questions - support@pro-jazz.com. Есть вопросы - support@pro-jazz.com
00:41
37
Нет комментариев. Ваш будет первым!