Вы используете незарегистрированную версию компонента "Вкладки"!

Поиск

1968 Tubby Hayes Quartet - Mexican Green (2019) {Decca, UMO} [24-88.2]

1968 Tubby Hayes Quartet - Mexican Green (2019) {Decca, UMO} [24-88.2]
Стили:
Дата записи диска:
2 февраля 1967, 7 марта 1967
Место записи:
London, UK
Издатель (лейбл):
Битрейт аудио:
lossless
Доп. инфо:

Формат записи/Источник записи: [TR24][OF]
Издание: Remastered
Год издания/переиздания диска: 1968/2019
Продолжительность: 00:50:32
Наличие сканов в содержимом раздачи: Нет

Контейнер: FLAC (*.flac)
Тип рипа: tracks
Разрядность: 24/88,2
Количество каналов: 2.0

Источник (релизер): Qobuz

Лог проверки качества
foobar2000 1.4.3 / Dynamic Range Meter 1.1.1
log date: 2021-05-31 18:36:42

--------------------------------------------------------------------------------
Analyzed: The Tubby Hayes Quartet / Mexican Green
--------------------------------------------------------------------------------

DR         Peak         RMS     Duration Track
--------------------------------------------------------------------------------
DR10      -0.47 dB   -12.02 dB      7:09 01-Dear Johnny B.
DR13      -0.48 dB   -15.18 dB      8:30 02-Off The Wagon
DR13      -0.49 dB   -17.17 dB      5:14 03-Trenton Place
DR11      -0.46 dB   -13.61 dB      5:24 04-The Second City Steamer
DR11      -0.60 dB   -12.74 dB      3:23 05-Blues In Orbit
DR11      -0.50 dB   -14.84 dB      7:06 06-A Dedication To Joy
DR10      -0.44 dB   -13.57 dB     13:46 07-Mexican Green
--------------------------------------------------------------------------------

Number of tracks:  7
Official DR value: DR11

Samplerate:        88200 Hz
Channels:          2
Bits per sample:   24
Bitrate:           2658 kbps
Codec:             FLAC
================================================================================
Any questions - support@pro-jazz.com. Есть вопросы - support@pro-jazz.com
21:51
44
Нет комментариев. Ваш будет первым!