Вы используете незарегистрированную версию компонента "Вкладки"!

Поиск

2020 Ernestine Anderson - Mad About The Boy {RevOla} [24-44.1]

2020 Ernestine Anderson - Mad About The Boy {RevOla} [24-44.1]
Стили:
Дата издания диска:
26 июня 2020
Издатель (лейбл):
Битрейт аудио:
lossless
Доп. инфо:

Формат записи/Источник записи: [TR24][OF]
Издание: Remastered
Год издания/переиздания диска: 2020
Продолжительность: 01:06:43
Наличие сканов в содержимом раздачи: Нет

Контейнер: FLAC (*.flac)
Тип рипа: tracks
Разрядность: 24/44,1
Количество каналов: 2.0

Источник (релизер): Qobuz

Лог проверки качества
foobar2000 1.4.3 / Dynamic Range Meter 1.1.1
log date: 2021-05-24 18:55:58

--------------------------------------------------------------------------------
Analyzed: Ernestine Anderson / Mad About The Boy
--------------------------------------------------------------------------------

DR         Peak         RMS     Duration Track
--------------------------------------------------------------------------------
DR12      -3.28 dB   -19.44 dB      3:19 01-Mad About The Boy (Remastered)
DR11      -2.35 dB   -17.01 dB      3:10 02-Did I Remember? (Remastered)
DR11      -2.68 dB   -16.69 dB      3:12 03-Day Dream (Remastered)
DR11      -2.99 dB   -17.36 dB      3:23 04-Experiment (Remastered)
DR11      -3.17 dB   -17.53 dB      2:22 05-That Old Feeling (Remastered)
DR12      -3.15 dB   -17.98 dB      2:45 06-The Song Is Ended (Remastered)
DR11      -2.62 dB   -16.95 dB      2:08 07-Love For Sale (Remastered)
DR12      -2.52 dB   -18.50 dB      3:23 08-Autumn In New York (Remastered)
DR11      -2.66 dB   -16.59 dB      2:37 09-My Man (Remastered)
DR11      -2.97 dB   -17.56 dB      3:05 10-Ill Wind (You're Blowin' Me No Good) (Remastered)
DR12      -2.83 dB   -18.61 dB      3:14 11-Little Girl Blue (Remastered)
DR11      -3.21 dB   -17.36 dB      2:57 12-Wrap Your Troubles In Dreams (And Dream Your Troubles Away) (Remastered)
DR11      -3.55 dB   -15.82 dB      1:36 13-Runnin' Wild (Remastered)
DR11      -3.05 dB   -16.32 dB      4:40 14-Stardust (Remastered)
DR11      -3.21 dB   -17.79 dB      1:50 15-Heat Wave (Remastered)
DR10      -3.25 dB   -16.46 dB      3:40 16-My Ship (Remastered)
DR12      -3.41 dB   -17.50 dB      2:54 17-Azure-Te (Remastered)
DR12      -2.99 dB   -17.07 dB      4:21 18-Welcome To The Club (Remastered)
DR10      -3.15 dB   -16.40 dB      2:12 19-There's A Boat Dat's Leavin' Soon For New York (Remastered)
DR9       -2.63 dB   -15.25 dB      2:44 20-Social Call (Remastered)
DR12      -3.26 dB   -17.59 dB      0:58 21-There Will Never Be Another You (Remastered)
DR10      -2.88 dB   -16.07 dB      2:03 22-Sleepin' Bee (Remastered)
DR10      -3.16 dB   -16.11 dB      4:20 23-Interlude (Remastered)
--------------------------------------------------------------------------------

Number of tracks:  23
Official DR value: DR11

Samplerate:        44100 Hz
Channels:          2
Bits per sample:   24
Bitrate:           1111 kbps
Codec:             FLAC
================================================================================
Any questions - support@pro-jazz.com. Есть вопросы - support@pro-jazz.com
18:54
49
Нет комментариев. Ваш будет первым!