Вы используете незарегистрированную версию компонента "Вкладки"!

Поиск

2019 Captain Supernova - The Voyage Never Ends... {Ropeadope} [24-44.1]

2019 Captain Supernova - The Voyage Never Ends... {Ropeadope} [24-44.1]
Дата издания диска:
27 декабря 2019
Издатель (лейбл):
Номер по каталогу:
RAD-487
Носитель:
WEB
Формат:
PCM
Тип рипа:
tracks
Контейнер:
FLAC (*.flac)
Количество каналов:
2.0
Разрядность/ЧД:
24/44,1
Битрейт аудио:
lossless
Наличие сканов:
только обложка
Лог проверки качества
foobar2000 1.6.2 / Dynamic Range Meter 1.1.1
log date: 2021-10-05 13:54:48

--------------------------------------------------------------------------------
Analyzed: Captain Supernova / The Voyage Never Ends...
--------------------------------------------------------------------------------

DR         Peak         RMS     Duration Track
--------------------------------------------------------------------------------
DR9       -0.24 dB   -13.14 dB      0:36 01-Start of your Path
DR10      -0.24 dB   -12.86 dB      4:33 02-Aquarian Dreams
DR10      -0.06 dB   -11.94 dB      6:06 03-Breathing
DR9        0.00 dB   -10.82 dB      5:41 04-Voyage to Nowhere
DR9       -0.18 dB   -10.92 dB      4:51 05-Endless Maze
DR9       -0.09 dB   -12.39 dB      4:38 06-Reveal Within
DR7       -0.03 dB    -9.74 dB      4:53 07-Echoes of Love
DR10      -0.07 dB   -11.58 dB      5:05 08-Closer to You
DR9       -0.02 dB   -10.41 dB      5:26 09-Find A Way
DR9       -0.13 dB   -11.85 dB      6:24 10-It Begins
--------------------------------------------------------------------------------

Number of tracks:  10
Official DR value: DR9

Samplerate:        44100 Hz
Channels:          2
Bits per sample:   24
Bitrate:           1410 kbps
Codec:             FLAC
================================================================================
Any questions - support@pro-jazz.com. Есть вопросы - support@pro-jazz.com
14:09
44
Нет комментариев. Ваш будет первым!