Вы используете незарегистрированную версию компонента "Вкладки"!

Поиск

2017 Daniel Karlsson Trio - Ding Dong {Brus & Knaster} [24-96]

2017 Daniel Karlsson Trio - Ding Dong {Brus & Knaster} [24-96]
Стили:
Место записи:
Runmarö Concert Hall
Дата издания диска:
27 января 2017
Носитель:
WEB
Формат:
PCM
Тип рипа:
tracks
Контейнер:
FLAC (*.flac)
Количество каналов:
2.0
Разрядность/ЧД:
24/96
Битрейт аудио:
lossless
Наличие сканов:
только обложка
Лог проверки качества
foobar2000 1.6.2 / Dynamic Range Meter 1.1.1
log date: 2021-10-06 20:12:36

--------------------------------------------------------------------------------
Analyzed: Daniel Karlsson Trio / Ding Dong
--------------------------------------------------------------------------------

DR         Peak         RMS     Duration Track
--------------------------------------------------------------------------------
DR10      -0.50 dB   -13.12 dB      6:56 01-Ding Dong
DR10      -0.50 dB   -12.42 dB      7:26 02-Last Tesoro
DR12      -0.50 dB   -15.26 dB      7:23 03-Streetlight Shadows
DR11      -0.50 dB   -13.92 dB      4:19 04-A Man and His Umbrella
DR12      -0.50 dB   -14.55 dB      5:13 05-Spyder's Mam
DR9       -0.50 dB   -12.70 dB      9:22 06-Passing Fury
--------------------------------------------------------------------------------

Number of tracks:  6
Official DR value: DR11

Samplerate:        96000 Hz
Channels:          2
Bits per sample:   24
Bitrate:           2752 kbps
Codec:             FLAC
================================================================================
Any questions - support@pro-jazz.com. Есть вопросы - support@pro-jazz.com
20:17
42
Нет комментариев. Ваш будет первым!