Поиск

2021 Paolo Fresu - Musica Da Lettura {Tuk Music} [24-48]

2021 Paolo Fresu - Musica Da Lettura {Tuk Music} [24-48]
Стили:
Дата издания диска:
10 февраля 2021
Носитель:
WEB
Формат:
PCM
Тип рипа:
tracks
Контейнер:
FLAC (*.flac)
Количество каналов:
2.0
Разрядность/ЧД:
24/48
Битрейт аудио:
lossless
Время звучания:
00:55:13
Наличие сканов:
буклет pdf
Треклист:

01. Paolo Fresu feat. Daniele Di Bonaventura - O Que Será / El Pueblo Unido Jamás Será Vencido (Chico Buarque, Sergio Ortega) [6:38]
02. Paolo Fresu feat. Marco Bardoscia & Dino Rubino - Mineralogia (Paolo Fresu) [4:46]
03. Paolo Fresu feat. Daniele Di Bonaventura & Quartetto Alborada - No potho reposare (Giuseppe Rachel, Salvatore Sini) [3:43]
04. Paolo Fresu feat. Marco Bardoscia - Dici otto (Marco Bardoscia, Paolo Fresu) [4:40]
05. Paolo Fresu feat. Marco Bardoscia, Daniele Di Bonaventura & Dino Rubino - Ferlinghetti (Paolo Fresu) [3:20]
06. Paolo Fresu feat. Daniele Di Bonaventura - El Ciego (Armando Canche Manzanero) [5:10]
07. Notte a San stino (Paolo Fresu) [3:05]
08. Paolo Fresu feat. Marco Bardoscia, Dino Rubino & Quartetto Alborada - The Way Forward (Introduction) / Metamorfosi (Paolo Fresu, Diederik Wissels) [5:45]
09. Paolo Fresu feat. Daniele Di Bonaventura - Preghiera in gennaio (Gian Piero Reverberi, Fabrizio De André) [5:07]
10. Paolo Fresu feat. Marco Bardoscia & Dino Rubino - Catalina (Paolo Fresu) [5:26]
11. Paolo Fresu feat. Quartetto Alborada - M'U (Paolo Fresu) [2:57]
12. Paolo Fresu feat. Marco Bardoscia, Daniele Di Bonaventura, Dino Rubino & Quartetto Alborada - Abide with Me (William Henry Monk, Henry Francis Lyte) [4:36]

Состав:
  • Paolo Fresu (tromba, flicorno, elettronica)
  • il Quartetto d’archi Alborada (Anton Berovski, Sonia Peana, Nico Ciricugno, Piero Salvatori),
  • Daniele di Bonaventura (bandoneon ed effetti),
  • Dino Rubino (pianoforte),
  • Marco Bardoscia (contrabbasso).
Доп. инфо:

Лог проверки качества
foobar2000 1.6.4 / Dynamic Range Meter 1.1.1
log date: 2021-02-14 23:05:40
--------------------------------------------------------------------------------
Analyzed: Paolo Fresu feat. Daniele Di Bonaventura & Quartetto Alborada / Musica da lettura (1)
          Paolo Fresu feat. Daniele Di Bonaventura / Musica da lettura (2-4)
          Paolo Fresu feat. Marco Bardoscia & Dino Rubino / Musica da lettura (5-6)
          Paolo Fresu feat. Marco Bardoscia, Daniele Di Bonaventura & Dino Rubino / Musica da lettura (7)
          Paolo Fresu feat. Marco Bardoscia, Daniele Di Bonaventura, Dino Rubino & Quartetto Alborada / Musica da lettura (8)
          Paolo Fresu feat. Marco Bardoscia, Dino Rubino & Quartetto Alborada / Musica da lettura (9)
          Paolo Fresu feat. Marco Bardoscia / Musica da lettura (10)
          Paolo Fresu feat. Quartetto Alborada / Musica da lettura (11)
          Paolo Fresu / Musica da lettura (12)
--------------------------------------------------------------------------------
DR         Peak         RMS     Duration Track
--------------------------------------------------------------------------------
DR8       -0.80 dB   -12.61 dB      3:43 03-No potho reposare
DR9       -0.47 dB   -13.14 dB      6:38 01-O Que Será / El Pueblo Unido Jamás Será Vencido
DR9       -0.17 dB   -12.87 dB      5:10 06-El Ciego
DR9       -0.17 dB   -13.53 dB      5:07 09-Preghiera in gennaio
DR10      -0.52 dB   -13.26 dB      4:46 02-Mineralogia
DR13      -0.58 dB   -17.91 dB      5:26 10-Catalina
DR10      -0.14 dB   -14.34 dB      3:20 05-Ferlinghetti
DR8       -0.18 dB   -11.56 dB      4:36 12-Abide with Me
DR8        0.00 dB   -11.97 dB      5:45 08-The Way Forward (Introduction) / Metamorfosi
DR9       -0.12 dB   -11.67 dB      4:40 04-Dici otto
DR10      -0.17 dB   -12.83 dB      2:57 11-M'U
DR7       -0.41 dB    -8.44 dB      3:05 07-Notte a San stino
--------------------------------------------------------------------------------
Number of tracks:  12
Official DR value: DR9
Samplerate:        48000 Hz
Channels:          2
Bits per sample:   24
Bitrate:           1492 kbps
Codec:             FLAC
================================================================================
По всем вопросам пишите личное сообщение пользователю M0p94ok.
11:05
238
Нет комментариев. Ваш будет первым!