Поиск

2016 VA - 2xHD Sampler - Audiophile Gems {2xHD} [24-44.1-192]

2016 VA - 2xHD Sampler - Audiophile Gems {2xHD} [24-44.1-192]
Издатель (лейбл):
Носитель:
WEB
Формат:
PCM
Тип рипа:
tracks
Контейнер:
FLAC (*.flac)
Количество каналов:
2.0
Разрядность/ЧД:
24/96
Битрейт аудио:
lossless
Время звучания:
01:26:25
Наличие сканов:
буклет pdf

01. Piltch & Davis - Horizontal Blue [06:09]
02. Amanda Martinez - Amor [03:17]
03. Jazz At The Pawnshop - Take Five [07:04]
04. Emile-Claire Barlow - The Very Thought of You (Arr. E.-C. Barlow for Voice, Band & Strings) [06:41]
05. Emanuelle Buono - Ricercar No. 34 "La Compagna" [02:50]
06. Robert Len - Fragile (Arr. R. Len) [03:33]
07. Berlioz - II. Un bal. Allegro non troppo (Version with Cornet Obbligato) [06:36]
08. Hotel Orchestra - In the Mood [03:36]
09. Holly Cole - Alley Cat Song [04:04]
10. Emile-Claire Barlow - Raindrops Keep Falling on My Head [04:14]
11. Copland - I. Buckaroo Holiday [07:53]
12. Holly Cole - My Foolish Heart [04:36]
13. Francois Dompierre - IV. Le Diable heureux (Version for Violin & Piano) [03:20]
14. Johan Pachelbel - Toccata in E Minor [01:51]
15. Rachmaninov - II. Lento [08:53]
16. Rachmaninov - II. Adagio ma non troppo [11:48]

Лог проверки качества
foobar2000 1.6.10 / Dynamic Range Meter 1.1.1
log date: 2022-11-25 17:58:38

--------------------------------------------------------------------------------
Statistics for: 09-Alley Cat Song
Number of samples: 21527856
Duration: 4:04 
--------------------------------------------------------------------------------

                 Left              Right

Peak Value:     -2.54 dB   ---     -3.00 dB   
Avg RMS:       -17.06 dB   ---    -17.11 dB   
DR channel:     11.21 dB   ---     11.97 dB   
--------------------------------------------------------------------------------

Official DR Value: DR12

Samplerate:        88200 Hz
Channels:          2
Bits per sample:   24
Bitrate:           2327 kbps
Codec:             FLAC
================================================================================
--------------------------------------------------------------------------------
Analyzed: Amanda Martinez / Gems (1)
          Berlioz / Gems (2)
          Emanuelle Buono / Gems (3)
          Emile-Claire Barlow / Gems (4-5)
          Francois Dompierre / Gems (6)
          Hotel Orchestra / Gems (7)
          Jazz At The Pawnshop / Gems (8)
          Piltch & Davis / Gems (9)
          Rachmaninov / Gems (10-11)
          Robert Len / Gems (12)
--------------------------------------------------------------------------------

DR         Peak         RMS     Duration Track
--------------------------------------------------------------------------------
DR13      -0.60 dB   -16.72 dB      3:17 02-Amor
DR14      -5.20 dB   -24.79 dB      6:36 07-II. Un bal. Allegro non troppo (Version with Cornet Obbligato)
DR13      -5.40 dB   -20.65 dB      2:50 05-Ricercar No. 34 "La Compagna"
DR10      -0.31 dB   -14.22 dB      6:41 04-The Very Thought of You (Arr. E.-C. Barlow for Voice, Band & Strings)
DR9       -1.06 dB   -11.91 dB      4:14 10-Raindrops Keep Falling on My Head
DR14      -3.23 dB   -25.58 dB      3:20 13-IV. Le Diable heureux (Version for Violin & Piano)
DR13      -0.13 dB   -15.98 dB      3:36 08-In the Mood
DR13       0.00 dB   -15.68 dB      7:04 03-Take Five
DR13      -1.69 dB   -20.15 dB      6:09 01-Horizontal Blue
DR14      -5.59 dB   -27.76 dB      8:53 15-II. Lento
DR18      -0.93 dB   -25.48 dB     11:48 16-II. Adagio ma non troppo
DR10      -0.45 dB   -15.20 dB      3:33 06-Fragile (Arr. R. Len)
--------------------------------------------------------------------------------

Number of tracks:  12
Official DR value: DR13

Samplerate:        96000 Hz
Channels:          2
Bits per sample:   24
Bitrate:           2582 kbps
Codec:             FLAC
================================================================================

--------------------------------------------------------------------------------
Analyzed: Copland / Gems (1)
          Johan Pachelbel / Gems (2)
--------------------------------------------------------------------------------

DR         Peak         RMS     Duration Track
--------------------------------------------------------------------------------
DR14       0.00 dB   -18.53 dB      7:53 11-I. Buckaroo Holiday
DR10      -2.48 dB   -15.53 dB      1:51 14-Toccata in E Minor
--------------------------------------------------------------------------------

Number of tracks:  2
Official DR value: DR12

Samplerate:        192000 Hz
Channels:          2
Bits per sample:   24
Bitrate:           5483 kbps
Codec:             FLAC
================================================================================
Приватный:
Нет (DHT включён)
Размер:
1.73 Гб (1,859,933,943 байт) » файлов: 20
Участники:
91 раздают, 0 качают (91 участников всего)
Внешние участники:
--- [ Обновить ]
14:37
730
Нет комментариев. Ваш будет первым!