Поиск

2020 Gene Harris - Blues n' Ballads: c {Resonance} [24-44,1]

2020 Gene Harris - Blues n' Ballads: c {Resonance} [24-44,1]
Стили:
Дата издания диска:
31 июля 2020
Издатель (лейбл):
Носитель:
WEB
Формат:
PCM
Тип рипа:
tracks
Контейнер:
FLAC (*.flac)
Количество каналов:
2.0
Разрядность/ЧД:
24/44,1
Битрейт аудио:
lossless
Наличие сканов:
только обложка

01 - Girl Talk - The Three Sounds 06:22
02 - In a Mellow Tone - Gene Harris Quartet 15:18
03 - My Funny Valentine - Gene Harris Quartet 06:04
04 - Blue Genes - The Three Sounds 03:10
05 - Sweet Georgia Brown - Gene Harris Quartet 09:27
06 - Lady Be Good - Gene Harris Quartet 10:04
07 - The Shadow of Your Smile - The Three Sounds 06:55
08 - That's All - Gene Harris Quartet 07:59
09 - Meditation - Gene Harris Quartet 08:37
10 - A.M. Blues - The Three Sounds 04:09
11 - Bluesette - The Three Sounds 06:48
12 - There Is No Greater Love - Gene Harris Quartet 13:26
13 - Rat Down Front - The Three Sounds 02:25
14 - This Masquerade - Gene Harris Quartet 11:24
15 - Blues Closer - Gene Harris Quartet 07:19

Состав:
  • The Three Sounds
  • Gene Harris — piano
  • Monk Higgins — organ
  • Fred Robinson, Albert Vescovo — guitar
  • Luther Hughes — electric bass
  • Carl Burnett — drums
  • Bobbye Porter Hall — conga
  • Paul Humphrey — percussion
  • Gene Harris Quartet
  • Bass – Luther Hughes
  • Drums – Paul Humphrey
  • Guitar – Ron Escheté
  • Piano – Gene Harris
Лог проверки качества
foobar2000 1.4.3 / Dynamic Range Meter 1.1.1
log date: 2021-05-17 20:14:54
--------------------------------------------------------------------------------
Analyzed: Gene Harris Quartet / Blues n' Ballads: The Best of Gene Harris on Resonance (1-9)
          The Three Sounds / Blues n' Ballads: The Best of Gene Harris on Resonance (10-15)
--------------------------------------------------------------------------------
DR         Peak         RMS     Duration Track
--------------------------------------------------------------------------------
DR8       -2.06 dB   -14.84 dB     15:18 02-In a Mellow Tone (Live)
DR16       0.00 dB   -20.87 dB      6:05 03-My Funny Valentine (Live)
DR9        0.00 dB   -10.90 dB      9:27 05-Sweet Georgia Brown (Live)
DR8        0.00 dB   -10.40 dB     10:05 06-Lady Be Good (Live)
DR9       -1.00 dB   -13.53 dB      7:59 08-That's All (Live)
DR7       -1.00 dB   -10.25 dB      8:37 09-Meditation (Live)
DR11      -2.46 dB   -16.41 dB     13:26 12-There Is No Greater Love (Live)
DR8       -1.00 dB   -12.65 dB     11:25 14-This Masquerade (Live)
DR10       0.00 dB   -13.14 dB      7:20 15-Blues Closer (Live)
DR10      -0.93 dB   -14.15 dB      6:23 01-Girl Talk (Live)
DR12      -0.93 dB   -14.26 dB      3:10 04-Blue Genes (Live)
DR9       -0.72 dB   -13.37 dB      6:55 07-The Shadow of Your Smile (Live)
DR10      -0.94 dB   -14.51 dB      4:10 10-A.M. Blues (Live)
DR9       -0.96 dB   -13.03 dB      6:48 11-Bluesette (Live)
DR9       -1.65 dB   -13.19 dB      2:26 13-Rat Down Front (Live)
--------------------------------------------------------------------------------
Number of tracks:  15
Official DR value: DR10
Samplerate:        44100 Hz
Channels:          2
Bits per sample:   24
Bitrate:           862 kbps
Codec:             FLAC
================================================================================
Приватный:
Нет (DHT включён)
Размер:
843.01 Мб (883,962,360 байт) » файлов: 20
Участники:
0 раздают, 0 качают (0 участников всего)
Внешние участники:
5 раздают, 1 качают (6 участников всего) [ Обновить ]
11:04
488
Нет комментариев. Ваш будет первым!