Поиск

2015 Corridor Bassoon Quartet - Corridoors (2021) {Hunnia} [24-96]

2015 Corridor Bassoon Quartet - Corridoors (2021) {Hunnia} [24-96]
Стили:
Дата издания диска:
1 мая 2015
Дата переиздания диска:
20 мая 2021
Издатель (лейбл):
Носитель:
WEB
Формат:
PCM
Тип рипа:
tracks
Контейнер:
FLAC (*.flac)
Количество каналов:
2.0
Разрядность/ЧД:
24/96
Битрейт аудио:
lossless
Время звучания:
00:35:23
Наличие сканов:
буклет pdf
Релизёр (источник):
ЯOR

◈ 01 - Take off (00:03:04)
◈ 02 - Dog-days (00:01:58)
◈ 03 - Fairy tale (00:01:18)
◈ 04 - Into the groove (00:03:02)
◈ 05 - Bora (00:04:11)
◈ 06 - Rhythm of life (00:03:48)
◈ 07 - Seems like (00:02:33)
◈ 08 - Papers int he dark (00:04:16)
◈ 09 - Clap dance (00:03:32)
◈ 10 - Winter mood (00:03:07)
◈ 11 - Memory of M. (00:04:29)

Состав:
  • Corridor Bassoon Quartet:
  • György Lakatos, bassoon
  • Zsófia Stefán, bassoon
  • Rebeka Tóth Sára, bassoon
  • Mihály Duffek, bassoon
  • Additional musicians:
  • Ágnes Lakatos, voice (tracks 4, 6, 7, 8)
  • Tibor Csuhaj-Barna, double bass (tracks 3, 4, 6, 7, 8, 10)
  • Rebeka Csuhaj Barna, flute (track 11)
Лог проверки качества
foobar2000 1.4.2 / Dynamic Range Meter 1.1.1
log date: 2021-05-23 20:27:06

--------------------------------------------------------------------------------
Analyzed: Corridor Bassoon Quartet / Corridoors
--------------------------------------------------------------------------------

DR         Peak         RMS     Duration Track
--------------------------------------------------------------------------------
DR10      -0.37 dB   -14.26 dB      3:04 01-Take off
DR9       -2.20 dB   -14.07 dB      1:58 02-Dog-days
DR9       -0.20 dB   -11.30 dB      1:18 03-Fairy tale
DR9       -0.20 dB   -10.58 dB      3:03 04-Into the groove
DR10      -0.20 dB   -13.01 dB      4:12 05-Bora
DR10      -0.20 dB   -11.24 dB      3:49 06-Rhythm of life
DR9       -0.20 dB   -10.46 dB      2:34 07-Seems like
DR9       -0.20 dB   -11.43 dB      4:17 08-Papers int he dark
DR11      -0.20 dB   -13.23 dB      3:32 09-Clap dance
DR9       -0.20 dB   -10.24 dB      3:07 10-Winter mood
DR8       -0.20 dB   -11.35 dB      4:30 11-Memory of M.
--------------------------------------------------------------------------------

Number of tracks:  11
Official DR value: DR9

Samplerate:        96000 Hz
Channels:          2
Bits per sample:   24
Bitrate:           2640 kbps
Codec:             FLAC
================================================================================
23:48
694
Нет комментариев. Ваш будет первым!