Поиск

2021 Omar Sosa - An East African Journey {Otá} [24-96]

2021 Omar Sosa - An East African Journey {Otá} [24-96]
Стили:
Битрейт аудио:
lossless
Доп. инфо:

Формат записи/Источник записи: [TR24][OF]
Год издания/переиздания диска: 2021
Издатель (лейбл): Otá Records
Продолжительность: 00:55:44
Наличие сканов в содержимом раздачи: Нет

Контейнер: FLAC (*.flac)
Тип рипа: tracks
Разрядность: 24/96
Количество каналов: 2.0

Источник (релизер): Qobuz

Лог проверки качества
foobar2000 1.4.3 / Dynamic Range Meter 1.1.1
log date: 2021-03-05 20:42:53

--------------------------------------------------------------------------------
Analyzed: Omar Sosa / An East African Journey
--------------------------------------------------------------------------------

DR         Peak         RMS     Duration Track
--------------------------------------------------------------------------------
DR9       -0.78 dB   -13.14 dB      4:07 01-Tsiaro Tsara
DR8       -0.78 dB   -10.52 dB      5:51 02-Thuon Mok Loga
DR9       -0.78 dB   -10.94 dB      4:20 03-Elrababa
DR11      -0.78 dB   -14.98 dB      3:41 04-Eretseretse
DR9       -0.78 dB   -12.08 dB      2:57 05-Che Che
DR9       -0.78 dB   -12.75 dB      3:13 06-Veloma E
DR8       -0.78 dB   -10.59 dB      4:09 07-Kwa Nyogokuru Revisited
DR10      -0.78 dB   -13.57 dB      5:45 08-Tizeta
DR10      -0.78 dB   -13.15 dB      3:26 09-Sabo
DR6       -0.78 dB    -8.50 dB      3:57 10-Meinfajria
DR10      -0.78 dB   -12.12 dB      4:48 11-Shibinda
DR10      -0.78 dB   -13.69 dB      2:49 12-Dadilahy
DR10      -0.78 dB   -12.43 dB      6:42 13-Ravann Dan Jazz
--------------------------------------------------------------------------------

Number of tracks:  13
Official DR value: DR9

Samplerate:        96000 Hz
Channels:          2
Bits per sample:   24
Bitrate:           2971 kbps
Codec:             FLAC
================================================================================
No seeders - write personal message to M0p94ok. Any questions - support@pro-jazz.com.
Нет сидеров - пишите в личку M0p94ok. Есть вопросы - support@pro-jazz.com
12:16
76
Нет комментариев. Ваш будет первым!