Поиск

2021 Focusyear Band - Bosque {Neuklang} [24-96]

2021 Focusyear Band - Bosque {Neuklang} [24-96]
Стили:
Место записи:
Bauer Studios, Ludwigsburg, Germany
Дата издания диска:
30 апреля 2021
Издатель (лейбл):
Носитель:
WEB
Формат:
PCM
Тип рипа:
tracks
Контейнер:
FLAC (*.flac)
Количество каналов:
2.0
Разрядность/ЧД:
24/96
Битрейт аудио:
lossless
Время звучания:
00:57:08
Наличие сканов:
только обложка
Страна-производитель диска (релиза):
Switzerland
Релизёр (источник):
M0p94ok
Доп. инфо:

Focusyear Band - это международная группа студентов с новым захватывающим проектом. Среди этих музыкантов: вокалистка Татьяна Нова (из Дрездена через Москву); саксофонисты Джошуа Скофилд (Англия) и Джанни Гальярди (Испания); трубачи / флюгельгорнисты / клапанные тромбонисты Яков Цветинский (Украина) и Себастьян Грещук (Аргентина); пианист Лоренцо Витоло (Италия); басист Итан Кон (Нью-Йорк, через Монреаль); и барабанщик Арон Талас (Венгрия). Участники ансамбля были отобраны из большого количества заявок.

Как видно из музыки, Focusyear Band 21 нашел свое собственное звучание с упором на импровизационный риск. После многих недель интенсивных занятий с выдающимися инструкторами восемь молодых музыкантов создали подборку оригинальных композиций, созданных в течение года. Они интерактивны, звучат и оригинальны, посвящены открытию и развитию языка джаза.

https://www.highresaudio.com/en/album/view/c7fqx7/focusyear-band-bosque

https://www.qobuz.com/au-en/album/bosque-focusyear-band/rlhgj8liifiqa

Лог проверки качества
foobar2000 1.6.2 / Dynamic Range Meter 1.1.1
log date: 2021-05-12 00:20:00

--------------------------------------------------------------------------------
Analyzed: Focusyear Band / Bosque
--------------------------------------------------------------------------------

DR         Peak         RMS     Duration Track
--------------------------------------------------------------------------------
DR12      -0.06 dB   -15.46 dB      5:03 01-Bonfire
DR12      -0.03 dB   -15.90 dB      7:25 02-Little Light
DR11      -0.02 dB   -14.36 dB      7:18 03-Crash Landing
DR10      -0.06 dB   -14.95 dB      4:40 04-Bound to You
DR11      -0.02 dB   -13.11 dB      5:25 05-Ladina Oswald
DR10      -0.06 dB   -13.84 dB      5:59 06-Spes
DR10      -0.06 dB   -13.60 dB      6:03 07-The Nordic Shuffle
DR9       -0.05 dB   -12.02 dB      4:39 08-Mean Street
DR9       -0.03 dB   -11.55 dB      6:05 09-Bosque
DR10      -0.06 dB   -13.33 dB      4:35 10-Joy
--------------------------------------------------------------------------------

Number of tracks:  10
Official DR value: DR10

Samplerate:        96000 Hz
Channels:          2
Bits per sample:   24
Bitrate:           2649 kbps
Codec:             FLAC
================================================================================
No seeders - write personal message to M0p94ok. Any questions - support@pro-jazz.com.
Нет сидеров - пишите в личку M0p94ok. Есть вопросы - support@pro-jazz.com
00:27
81
Нет комментариев. Ваш будет первым!