Вы используете незарегистрированную версию компонента "Вкладки"!

Поиск

2020 Focusyear Band - Open Arms {Neuklang} [24-48]

2020 Focusyear Band - Open Arms {Neuklang} [24-48]
Место записи:
Bauer Studios, Lud­wigs­burg, Germany
Дата издания диска:
26 июня 2020
Издатель (лейбл):
Номер по каталогу:
NCD4234
Носитель:
WEB
Формат:
PCM
Тип рипа:
tracks
Контейнер:
FLAC (*.flac)
Количество каналов:
2.0
Разрядность/ЧД:
24/48
Битрейт аудио:
lossless
Время звучания:
01:10:08
Наличие сканов:
только обложка
Страна-производитель диска (релиза):
Switzerland
Релизёр (источник):
M0p94ok
Доп. инфо:

Уникальный в Европе: под художественным руководством австрийского гитариста Вольфганга Мутшпильса от шести до девяти джазовых музыкантов, отбираются экспертным жюри для Focusyear в Jazzcampus Basel из заявок, поданных со всего мира, получают стипендию на целый год от Focusyear, чтобы полностью посвятить себя музыке.

В этом году отобранные музыканты еще раз продемонстрируют профессионализм этого музыкального проекта с помощью многогранных гармоний, сложных мелодий и многослойных саундскейпов. Композиции пронизаны виртуозными соло отдельных инструментов вплоть до слияния их в красочный звуковой образ и позволяют слушателю погрузиться в мир современного джаза. В качестве прелюдии к этому ежегодному проекту Focusyear Band в этом году снова создал полное произведение на высшем уровне.

Лог проверки качества
foobar2000 1.6.2 / Dynamic Range Meter 1.1.1
log date: 2021-05-12 00:36:51

--------------------------------------------------------------------------------
Analyzed: Focusyear Band / Arms Open
--------------------------------------------------------------------------------

DR         Peak         RMS     Duration Track
--------------------------------------------------------------------------------
DR11      -0.12 dB   -12.96 dB      8:49 01-Sweet Suite
DR10      -0.11 dB   -11.89 dB      6:56 02-Basel
DR11      -0.11 dB   -14.19 dB      6:57 03-Arrasa Y Se Và
DR11      -0.11 dB   -13.03 dB      6:48 04-Arms Open
DR13      -0.12 dB   -16.40 dB      7:37 05-Imagine Yourself
DR11      -0.11 dB   -13.14 dB      8:19 06-Incerteza
DR12      -0.11 dB   -14.55 dB      6:39 07-Particle
DR11      -0.11 dB   -13.04 dB      5:57 08-Ip
DR10      -0.11 dB   -13.25 dB      7:38 09-The End of a Descent
DR11      -0.11 dB   -12.35 dB      4:34 10-All Too Late
--------------------------------------------------------------------------------

Number of tracks:  10
Official DR value: DR11

Samplerate:        48000 Hz
Channels:          2
Bits per sample:   24
Bitrate:           1766 kbps
Codec:             FLAC
================================================================================
Any questions - support@pro-jazz.com. Есть вопросы - support@pro-jazz.com
22:35
102
Нет комментариев. Ваш будет первым!