Поиск

2019 Focusyear Band - Open Paths {Neuklang} [24-48]

2019 Focusyear Band - Open Paths {Neuklang} [24-48]
Стили:
Дата издания диска:
14 июня 2019
Издатель (лейбл):
Носитель:
WEB
Формат:
PCM
Тип рипа:
tracks
Контейнер:
FLAC (*.flac)
Количество каналов:
2.0
Разрядность/ЧД:
24/48
Битрейт аудио:
lossless
Время звучания:
01:00:47
Наличие сканов:
только обложка
Наличие водяных знаков:
нет
Страна-производитель диска (релиза):
Switzerland
Релизёр (источник):
M0p94ok

Треклист:

01. Primeiro Sim    04:33
02. Coming Back    05:15
03. Every Song, It Spells Your Name    04:38
04. New Again    05:29
05. Gridlock    05:19
06. Big Young Soul    06:43
07. Borrowed Time    03:22
08. Brisa    07:18
09. Weird Dream    06:19
10. Turning Points    05:15
11. Caminhos Albertos (Open Paths)    06:37

Доп. инфо:

Джазовая стипендия, которая позволяет вам полностью сосредоточиться на музыке в течение всего года без давления существования, без академической программы, кредитов и экзаменов в международной группе, состоящей из самых талантливых музыкантов и в сопровождении всемирно выдающихся личностей с джазовой сцены: Это Мечта стала реальностью в месте, которое является уникальным для мира джаза - Jazzcampus Musikhochschule / FHNW в Базеле.

Австрийский гитарист Вольфганг Мутшпиль является инициатором и лидером этого необычного проекта, который является новым для Европы, и который объединяет таких джазовых тяжеловесов, как Дэйв Холланд, Авишай Коэн, Бекка Стивенс, Джошуа Редман или Стив Суоллоу, которые каждые две недели тренируют группу в Джаз-лагере. .

Из заявок, поступающих со всего мира и после прослушиваний, восемь музыкантов были выбраны для участия в Focusyear Band. С сентября 2017 года они регулярно бывают в клубе Jazzcampus и будут записывать свою музыку в студии Jazzcampus. По окончании стипендии они познакомятся с международной средой посредством клубных и фестивальных концертов.

https://www.qobuz.com/de-de/album/open-paths-focusyear-band/z1czgaqyp70ha

https://www.highresaudio.com/en/album/view/boqjzh/focusyear-band-open-paths

Лог проверки качества
foobar2000 1.6.2 / Dynamic Range Meter 1.1.1
log date: 2021-05-11 21:50:06

--------------------------------------------------------------------------------
Analyzed: Focusyear Band / Open Paths
--------------------------------------------------------------------------------

DR         Peak         RMS     Duration Track
--------------------------------------------------------------------------------
DR11      -0.11 dB   -13.75 dB      4:33 01-Primeiro Sim
DR9       -0.11 dB   -11.16 dB      5:15 02-Coming Back
DR10      -0.12 dB   -12.48 dB      4:38 03-Every Song, It Spells Your Name
DR11      -0.12 dB   -14.24 dB      5:29 04-New Again
DR10      -0.52 dB   -15.24 dB      5:19 05-Gridlock
DR10      -0.11 dB   -12.35 dB      6:43 06-Big Young Soul
DR10      -0.12 dB   -14.13 dB      3:22 07-Borrowed Time
DR10      -0.11 dB   -13.01 dB      7:18 08-Brisa
DR11      -0.13 dB   -17.16 dB      6:19 09-Weird Dream
DR11      -0.12 dB   -13.32 dB      5:15 10-Turning Points
DR10      -0.11 dB   -11.92 dB      6:37 11-Caminhos Albertos (Open Paths)
--------------------------------------------------------------------------------

Number of tracks:  11
Official DR value: DR10

Samplerate:        48000 Hz
Channels:          2
Bits per sample:   24
Bitrate:           1699 kbps
Codec:             FLAC
================================================================================
Приватный:
Нет (DHT включён)
Размер:
696.39 Мб (730,214,683 байт) » файлов: 13
Участники:
4 раздают, 0 качают (4 участников всего)
Внешние участники:
--- [ Обновить ]
No seeders - write personal message to M0p94ok. Нет сидеров - пишите в личку M0p94ok.
22:02
33
Нет комментариев. Ваш будет первым!