Поиск

2013 VA - Opus3 Showcase 2013 {Opus3} [DSD64 ISO]

2013 VA - Opus3 Showcase 2013 {Opus3} [DSD64 ISO]
Битрейт аудио:
lossless
Треклист:

01. Sweet Elizabeth (B.B. Driftwood)
02. No One But Myself To Blame (Rebecka Sjoberg from Sticks & Stones)
03. Sophisticated Shade (Eric Bibb)
04. I Can Hear It (Therese Mercedes Myrhed)
05. Grey Hound Ride (Dan & The Electros)
06. Strange… (B.B. Driftwood)
07. Sticks & Stones (Rebecka Sjoberg from Sticks & Stones)
08. Come Back Baby (Eric Bibb)
09. The Milky Way (East – Pathfinder)
10. We’ll Be Together Again (Maria Winther)
11. Blues avec un Pont (Tomas Ornberg’s Blue Five, feat. Tomas Ornberg)
12. Cake Walkin’ Babies From Home (Eva Taylor)
13. It’s Never Too Late (Dan & The Electros)

Доп. инфо:

Формат записи/Источник записи: [SACD-R][OF]
Наличие водяных знаков: Нет
Издание: Sampler
Год издания диска: 2013
Издатель (лейбл): Opus 3 Records ‎– [CD 23000]
Продолжительность: 00:53:11
Наличие сканов в содержимом раздачи: Да (сканы)

Контейнер: ISO (*.iso)
Тип рипа: image
Разрядность: 64(2,8 MHz/1 Bit)
Формат: DSD
Количество каналов: 2.0

Доп. информация: discogs.com
Источник (релизер): ManWhoCan pic

Третий релиз из серии бестселлеров Opus 3 Showcase с участием любимых исполнителей всемирно известного и уважаемого лейбла Audiophile Opus 3 Records.

За последние 7 лет с момента выпуска Opus 3 Showcase в 2005 году произошли изменения в музыкальном жанре, который мы записали. К ним относятся BlueGrass, Americana и музыка, вдохновленная ранними днями поп- и рок-музыки.
Из 13 треков 9 - вокал, в отличие от более ранних записей, где преобладали инструментальные партии, а не классическая музыка. (Это не означает, что мы не будем записывать классическую музыку в будущем, это будет зависеть от того, какие возможности появятся на нашем пути!)

Среди новых артистов - Мария Винтер, Би Би Дрифтвуд, Ист, Дэн и Электрос, а также вкус будущей Тесс (Тереза ​​Мерседес Мирхед).
Второй трек с будущего альбома - BLUE FIVE Томаса Црнберга с участием самого неподражаемого Томаса, уже известного из нашего каталога. (Его альбом 1982 года (CD 8003) был признан лучшим джазовым альбомом Швеции того года!)

Выдающийся артист Opus 3 Эрик Бибб представлен треком из своего последнего альбома Blues, Ballads & WorkSongs, который получил невероятное количество восторженных отзывов!

Этот альбом призван проиллюстрировать, что, несмотря на небольшие изменения в записанном материале, одна вещь, которая остается неизменной, - это максимально возможное качество записи - то, чем пластинки Opus 3 славятся с момента своего создания 36 лет назад.

Лог проверки качества
foobar2000 1.6.4 / Dynamic Range Meter 1.1.1
log date: 2021-03-05 20:44:56

--------------------------------------------------------------------------------
Analyzed: Various / "Showcase 2013"
--------------------------------------------------------------------------------

DR         Peak         RMS     Duration Track
--------------------------------------------------------------------------------
DR12      -6.66 dB   -20.03 dB      3:07 01-Sweet Elizabeth
DR11      -7.19 dB   -21.42 dB      3:53 02-No One But Myself To Blame
DR12      -7.22 dB   -20.19 dB      2:33 03-Sophisticated Shade
DR8       -6.18 dB   -16.01 dB      2:13 04-I Can Hear It
DR10      -6.09 dB   -17.61 dB      2:42 05-Grey Hound Ride
DR10      -6.66 dB   -18.80 dB      4:02 06-Strange...
DR10      -6.95 dB   -18.07 dB      3:10 07-Sticks & Stones
DR15      -6.21 dB   -25.34 dB      5:40 08-Come Back Baby
DR10      -6.49 dB   -18.70 dB      3:40 09-The Milky Way
DR11      -6.57 dB   -20.05 dB      5:50 10-We'll Be Together Again
DR10      -6.20 dB   -18.55 dB      8:58 11-Blues Avec Un Pont
DR11      -6.25 dB   -19.11 dB      4:32 12-Cake Walkin' Babies From Home
DR11      -6.63 dB   -19.57 dB      2:52 13-It's Never Too Late
--------------------------------------------------------------------------------

Number of tracks:  13
Official DR value: DR11

Samplerate:        2822400 Hz / PCM Samplerate: 352800 Hz
Channels:          2
Bits per sample:   1
Bitrate:           5645 kbps
Codec:             DSD64
================================================================================
Приватный:
Нет (DHT включён)
Размер:
2.14 Гб (2,294,278,063 байт) » файлов: 8
Участники:
0 раздают, 0 качают (0 участников всего)
Внешние участники:
11 раздают, 4 качают (15 участников всего) [ Обновить ]
No seeders - write personal message to M0p94ok. Нет сидеров - пишите в личку M0p94ok.
13:36
77
Нет комментариев. Ваш будет первым!