Поиск

2016 Edward Simon - Latin American Songbook {Sunnyside} [24-96]

2016 Edward Simon - Latin American Songbook {Sunnyside} [24-96]
Стили:
Дата записи диска:
10 августа - 12 августа 2015
Место записи:
Tin Roof Recording, Sonoma County, CA
Дата издания диска:
19 сентября 2016
Издатель (лейбл):
Номер по каталогу:
SSC 1418
Носитель:
WEB
Формат:
PCM
Тип рипа:
tracks
Контейнер:
FLAC (*.flac)
Количество каналов:
2.0
Разрядность/ЧД:
24/96
Битрейт аудио:
lossless
Время звучания:
00:54:57
Наличие сканов:
только обложка
Наличие водяных знаков:
нет
Страна-производитель диска (релиза):
USA
Релизёр (источник):
M0p94ok
Треклист:

1.  Libertango  06:35
2.    Alfonsina y el Mar  09:05
3.    Capullito  09:12
4.    Volver  08:46
5.    Gracias a La Vida  07:33
6.    Chega de Saudade  06:50
7.    En la Orilla del Mundo  06:57

Лог проверки качества
foobar2000 1.6.2 / Dynamic Range Meter 1.1.1
log date: 2021-05-11 12:25:11

--------------------------------------------------------------------------------
Analyzed: Edward Simon / Latin American Songbook
--------------------------------------------------------------------------------

DR         Peak         RMS     Duration Track
--------------------------------------------------------------------------------
DR12      -0.10 dB   -15.96 dB      6:35 01-Libertango
DR12      -2.43 dB   -18.13 dB      9:05 02-Alfonsina y el mar
DR12      -0.90 dB   -16.08 dB      9:12 03-Capullito de Aleli
DR13      -0.95 dB   -17.27 dB      8:46 04-Volver
DR13      -3.05 dB   -20.43 dB      7:33 05-Gracias a la vida
DR10      -0.89 dB   -14.42 dB      6:51 06-Chega de Saudade
DR13      -2.06 dB   -18.42 dB      6:54 07-En la orilla del mundo
--------------------------------------------------------------------------------

Number of tracks:  7
Official DR value: DR12

Samplerate:        96000 Hz
Channels:          2
Bits per sample:   24
Bitrate:           2742 kbps
Codec:             FLAC
================================================================================
Приватный:
Нет (DHT включён)
Размер:
1.08 Гб (1,154,298,896 байт) » файлов: 9
Участники:
5 раздают, 0 качают (5 участников всего)
Внешние участники:
--- [ Обновить ]
No seeders - write personal message to M0p94ok. Any questions - support@pro-jazz.com.
Нет сидеров - пишите в личку M0p94ok. Есть вопросы - support@pro-jazz.com
12:52
53
Нет комментариев. Ваш будет первым!