Поиск

1959 Chet Baker - Plays The Best Of Lerner And Loewe (2020) {Craft} [24-192]

1959 Chet Baker - Plays The Best Of Lerner And Loewe (2020) {Craft} [24-192]
Битрейт аудио:
lossless

Треклист:

01. I've Grown Accustomed To Your Face (04:15)
02. I Could Have Danced All Night (03:42)
03. The Heather On The Hill (05:03)
04. On The Street Where You Live (08:35)
05. Almost Like Being In Love (04:53)
06. Thank Heaven For Little Girls (04:35)
07. I Talk To The Trees (05:50)
08. Show Me (06:29)

Доп. инфо:

Формат записи/Источник записи: [TR24][OF]
Наличие водяных знаков: Нет
Год издания: 2020
Издатель (лейбл): Craft Recordings
Продолжительность: 00:43:25
Наличие сканов в содержимом раздачи: Только обложка альбома
Контейнер: FLAC (*.flac)
Тип рипа: tracks
Разрядность: 24/192
Формат: PCM
Количество каналов: 2.0
Источник (релизер): prestomusic.com

Это один из последних полных альбомов Чета Бейкера, записанных в Штатах до переезда артиста в Европу в начале 60-х. Точно так же сборник из восьми мелодий был последним альбомом, выпущенным во время его краткого сотрудничества с издательством Riverside Records. Этот проект, несомненно, был стимулирован ошеломляющим успехом комбо под руководством Шелли Манна, которое интерпретировало названия, взятые из музыки к My Fair Lady (1956). LP Манна не только мгновенно стал классикой, но и стал одним из самых продаваемых джазовых пластинок всех времен. Хотя Бейкер и команда, возможно, черпали вдохновение у Манна, эти прочтения сравнительно занижены. Тем не менее, вневременность мелодий в сочетании с собранным аккомпанементом делают Chet Baker Plays the Best of Lerner and Loewe (1959) запоминающимся концептуальным альбомом.

Лог проверки качества
foobar2000 1.4.8 / Dynamic Range Meter 1.1.1
log date: 2021-03-05 21:06:22

--------------------------------------------------------------------------------
Analyzed: Chet Baker / Chet Baker Plays The Best Of Lerner And Loewe
--------------------------------------------------------------------------------

DR         Peak         RMS     Duration Track
--------------------------------------------------------------------------------
DR9       -0.50 dB   -13.21 dB      4:15 01-I've Grown Accustomed To Your Face
DR8       -0.50 dB   -11.99 dB      3:43 02-I Could Have Danced All Night
DR9       -0.50 dB   -13.37 dB      5:04 03-The Heather On The Hill
DR10      -0.50 dB   -13.14 dB      8:36 04-On The Street Where You Live
DR9       -0.50 dB   -12.40 dB      4:53 05-Almost Like Being In Love
DR10      -0.50 dB   -13.37 dB      4:35 06-Thank Heaven For Little Girls
DR10      -0.50 dB   -13.79 dB      5:51 07-I Talk To The Trees
DR10      -0.50 dB   -12.65 dB      6:30 08-Show Me
--------------------------------------------------------------------------------

Number of tracks:  8
Official DR value: DR9
Samplerate:        192000 Hz
Channels:          2
Bits per sample:   24
Bitrate:           6309 kbps
Codec:             FLAC
================================================================================
Приватный:
Нет (DHT включён)
Размер:
1.89 Гб (2,024,911,562 байт) » файлов: 10
Участники:
0 раздают, 0 качают (0 участников всего)
Внешние участники:
5 раздают, 1 качают (6 участников всего) [ Обновить ]
No seeders - write personal message to M0p94ok. Any questions - support@pro-jazz.com.
Нет сидеров - пишите в личку M0p94ok. Есть вопросы - support@pro-jazz.com
11:09
54
Нет комментариев. Ваш будет первым!