Поиск

2011 Danny Fox Trio - The One Constant {Songlines} [24-88.2]

2011 Danny Fox Trio - The One Constant {Songlines} [24-88.2]
Стили:
Дата записи диска:
13 ноября - 13 ноября 2009
Место записи:
Peter Karl Studios, Brooklyn, NY
Дата издания диска:
14 июня 2011
Номер по каталогу:
Songlines SGL 1588-2
Носитель:
WEB
Формат:
PCM
Тип рипа:
tracks
Контейнер:
FLAC (*.flac)
Количество каналов:
2.0
Разрядность/ЧД:
24/88,2
Битрейт аудио:
lossless
Время звучания:
01:09:25
Наличие сканов:
буклет pdf
Наличие водяных знаков:
да
Страна-производитель диска (релиза):
Canada
Релизёр (источник):
M0p94ok

Треклист:

01. Next Chapter  06:29
02. Trudge  04:08
03. Easily Distracted  06:08
04. Fable's End  05:40
05. Sadbeard  06:00
06. The Icebox  06:05
07. Bad Houseguest  05:56
08. Even Tempered  03:09
09. Drama King  08:46
10. Roquette  06:10
11. Room 120  05:35
12. The One Constant  05:12

Лог проверки качества
foobar2000 1.3.16 / Dynamic Range Meter 1.1.1
log date: 2019-06-09 02:18:04

--------------------------------------------------------------------------------
Analyzed: Danny Fox Trio / The One Constant
--------------------------------------------------------------------------------

DR         Peak         RMS     Duration Track
--------------------------------------------------------------------------------
DR10      -0.20 dB   -14.05 dB      6:30 01-Next Chapter
DR11      -0.20 dB   -15.21 dB      4:09 02-Trudge
DR11      -0.20 dB   -13.68 dB      6:09 03-Easily Distracted
DR11      -0.01 dB   -15.23 dB      5:40 04-Fable's End
DR11      -0.20 dB   -15.80 dB      6:01 05-Sadbeard
DR11      -0.20 dB   -13.39 dB      6:05 06-The Icebox
DR11      -0.20 dB   -15.06 dB      5:57 07-Bad Houseguest
DR11      -0.69 dB   -15.81 dB      3:10 08-Even Tempered
DR10      -0.20 dB   -14.97 dB      8:46 09-Drama King
DR11      -0.20 dB   -14.12 dB      6:11 10-Roquette
DR9       -0.20 dB   -12.64 dB      5:36 11-Room 120
DR12      -0.20 dB   -17.60 dB      5:12 12-The One Constant
--------------------------------------------------------------------------------

Number of tracks:  12
Official DR value: DR11

Samplerate:        88200 Hz
Channels:          2
Bits per sample:   24
Bitrate:           2344 kbps
Codec:             FLAC
================================================================================
Приватный:
Нет (DHT включён)
Размер:
1.18 Гб (1,265,458,867 байт) » файлов: 15
Участники:
5 раздают, 0 качают (5 участников всего)
Внешние участники:
--- [ Обновить ]
No seeders - write personal message to M0p94ok. Any questions - support@pro-jazz.com.
Нет сидеров - пишите в личку M0p94ok. Есть вопросы - support@pro-jazz.com
10:32
48
Нет комментариев. Ваш будет первым!