Поиск

2019 String Of Pearls - It Don’t Mean A Thing {Venus} [DSD64 ISO]

2019 String Of Pearls - It Don’t Mean A Thing {Venus} [DSD64 ISO]
Стили:
Издатель (лейбл):
Номер по каталогу:
VHGD-326
Битрейт аудио:
lossless
Доп. инфо:

Формат записи/Источник записи: [SACD-R][OF]
Наличие водяных знаков: Нет
Год издания диска: 2019
Продолжительность: 00:51:39
Наличие сканов в содержимом раздачи: Только обложка альбома

Контейнер: ISO (*.iso)
Тип рипа: image
Разрядность: 64(2,8 MHz/1 Bit)
Формат: DSD
Количество каналов: 2.0

Доп. информация: venusrecords
Источник (релизер): jazzy pic

Лог проверки качества
foobar2000 1.6.4 / Dynamic Range Meter 1.1.1
log date: 2021-03-05 17:53:31

--------------------------------------------------------------------------------
Analyzed: STRING OF PEARLS / It Don't Mean A Thing
--------------------------------------------------------------------------------

DR         Peak         RMS     Duration Track
--------------------------------------------------------------------------------
DR9       -4.81 dB   -14.75 dB      2:46 01-It's Sand, Man
DR8       -5.07 dB   -14.60 dB      3:15 02-Forty Second Street
DR8       -4.96 dB   -15.24 dB      2:40 03-Girl Talk
DR8       -4.72 dB   -13.96 dB      2:37 04-Professor Bop
DR8       -5.15 dB   -14.45 dB      3:27 05-It Don't Mean A Thing
DR9       -5.14 dB   -16.72 dB      3:27 06-One Note Samba
DR8       -5.03 dB   -14.82 dB      2:46 07-Nice Work If You Can Get It
DR9       -5.04 dB   -15.11 dB      2:51 08-Straighten Up & Fly Right
DR8       -4.99 dB   -14.05 dB      4:41 09-I Hear Music
DR7       -5.01 dB   -13.51 dB      2:42 10-A String Of Pearls
DR7       -5.07 dB   -13.48 dB      2:44 11-Crazy People
DR8       -5.01 dB   -13.81 dB      3:00 12-Smack Dab In Middle
DR9       -5.03 dB   -15.66 dB      3:47 13-Teach Me Tonight
DR9       -5.05 dB   -15.07 dB      2:35 14-South American Way
DR7       -4.64 dB   -13.63 dB      2:51 15-Sermonette
DR8       -4.74 dB   -14.18 dB      2:40 16-Glow Worm
DR8       -4.99 dB   -14.72 dB      2:49 17-Sentimental Gentleman From Georgia
--------------------------------------------------------------------------------

Number of tracks:  17
Official DR value: DR8

Samplerate:        2822400 Hz / PCM Samplerate: 352800 Hz
Channels:          2
Bits per sample:   1
Bitrate:           5645 kbps
Codec:             DSD64
================================================================================
No seeders - write personal message to M0p94ok. Any questions - support@pro-jazz.com.
Нет сидеров - пишите в личку M0p94ok. Есть вопросы - support@pro-jazz.com
10:13
86
Нет комментариев. Ваш будет первым!